<?xml version="1.0" standalone="no"?>
<!DOCTYPE svg PUBLIC "-//W3C//DTD SVG 1.1//EN" "http://www.w3.org/Graphics/SVG/1.1/DTD/svg11.dtd" >
<svg xmlns="http://www.w3.org/2000/svg">
<metadata>Generated by IcoMoon</metadata>
<defs>
<font id="icomoon23" horiz-adv-x="1024">
<font-face units-per-em="1024" ascent="960" descent="-64" />
<missing-glyph horiz-adv-x="1024" />
<glyph unicode="&#x20;" horiz-adv-x="512" d="" />
<glyph unicode="&#xe900;" glyph-name="download" d="M935.88 714.783l-423.831-423.933-423.831 423.984c-20.207 20.207-52.894 20.207-73.101 0-20.156-20.207-20.156-52.945 0-73.152l460.358-460.511c20.156-20.207 52.894-20.207 73.050 0l460.358 460.507c20.156 20.207 20.156 52.996 0 73.203-20.105 20.109-52.848 20.109-73.003-0.098z" />
<glyph unicode="&#xe901;" glyph-name="magnifying-glass" d="M1015.031-11.778l-248.848 248.848c66.753 76.743 107.168 176.873 107.168 286.311 0 240.901-195.945 436.619-436.619 436.619-240.901 0-436.619-195.945-436.619-436.619s195.945-436.619 436.619-436.619c109.439 0 209.568 40.415 286.311 107.168l248.848-248.848c5.903-5.903 13.85-9.082 21.57-9.082s15.667 2.952 21.57 9.082c11.807 11.807 11.807 31.333 0 43.14zM61.19 523.381c0 207.071 168.472 375.315 375.315 375.315 207.071 0 375.315-168.472 375.315-375.315s-168.245-375.542-375.315-375.542c-206.843 0-375.315 168.472-375.315 375.542z" />
<glyph unicode="&#xe902;" glyph-name="down-arrow" d="M962.878 685.346c-12.701 12.701-33.34 12.701-46.040 0l-404.837-405.631-405.631 405.631c-12.701 12.701-33.34 12.701-46.040 0s-12.701-33.34 0-46.040l427.857-427.857c6.35-6.35 14.288-9.526 23.020-9.526 7.938 0 16.67 3.175 23.020 9.526l427.857 427.857c13.495 12.701 13.495 33.34 0.794 46.040z" />
<glyph unicode="&#xe903;" glyph-name="upload" d="M850.394 641.337l-304.726 304.718c-18.592 18.592-48.745 18.592-67.337 0l-304.726-304.726c-18.6-18.596-18.6-48.741 0-67.337 9.29-9.294 21.483-13.945 33.668-13.945s24.367 4.651 33.668 13.945l223.444 223.444v-813.823c0-26.294 21.319-47.613 47.613-47.613 26.286 0 47.613 21.319 47.613 47.613v813.827l223.444-223.436c18.6-18.592 48.745-18.592 67.337 0 18.596 18.592 18.596 48.737 0 67.333z" />
<glyph unicode="&#xe904;" glyph-name="link" d="M511.986 960c-282.757 0-511.983-229.243-511.983-511.99s229.226-512.010 511.983-512.010 512.010 229.25 512.010 512.010-229.253 511.99-512.010 511.99zM769.239 539.129l-125.222-125.222c-13.582-13.582-31.638-21.060-50.842-21.060-19.2 0-37.26 7.482-50.842 21.053l-4.905 4.905-13.332-13.332 4.895-4.895c28.037-28.037 28.037-73.656 0-101.693l-125.204-125.222c-13.582-13.582-31.638-21.060-50.852-21.060-19.21 0-37.27 7.482-50.859 21.071l-47.326 47.34c-28.037 28.020-28.037 73.636-0.010 101.683l125.232 125.215c13.582 13.582 31.638 21.060 50.852 21.060s37.26-7.482 50.852-21.060l4.888-4.888 13.332 13.332-4.888 4.888c-28.037 28.027-28.037 73.646-0.017 101.683l125.232 125.222c13.588 13.588 31.648 21.071 50.852 21.071s37.26-7.482 50.852-21.060l47.336-47.353c28.013-28.020 28.013-73.646-0.024-101.676zM486.533 367.927l-24.211-24.211-37.553 37.543 24.211 24.211-4.888 4.888c-3.55 3.54-8.267 5.499-13.278 5.499-5.021 0-9.738-1.956-13.288-5.499l-125.222-125.204c-7.322-7.328-7.322-19.244 0-26.566l47.343-47.353c7.11-7.11 19.483-7.1 26.576-0.010l125.204 125.222c7.332 7.328 7.332 19.255 0 26.586l-4.895 4.895zM684.349 650.605c-3.55 3.55-8.277 5.506-13.298 5.506s-9.748-1.956-13.298-5.516l-125.222-125.215c-7.311-7.328-7.311-19.244 0.010-26.576l4.895-4.888 37.137 37.147 37.553-37.553-37.137-37.147 4.895-4.895c7.11-7.089 19.466-7.1 26.576 0.010l125.215 125.204c7.322 7.328 7.322 19.244 0 26.576l-47.326 47.346z" />
<glyph unicode="&#xe905;" glyph-name="chat" d="M0 256c0-47.146 38.186-85.334 85.334-85.334h128v-131.626c0-23.68 19.2-42.666 42.666-42.666 11.968 0 22.806 4.906 30.506 12.8l161.494 161.492h469.334c47.146 0 85.334 38.186 85.334 85.334l-0.002 533.334c0 47.146-38.186 85.334-85.334 85.334l-831.998-0.002c-47.148 0-85.334-38.186-85.334-85.332v-533.334zM256 501.334c0 29.44 23.894 53.334 53.334 53.334s53.334-23.894 53.334-53.334-23.894-53.334-53.334-53.334-53.334 23.894-53.334 53.334zM448 501.334c0 29.44 23.894 53.334 53.334 53.334s53.334-23.894 53.334-53.334-23.894-53.334-53.334-53.334-53.334 23.894-53.334 53.334zM640 501.334c0 29.44 23.894 53.334 53.334 53.334s53.334-23.894 53.334-53.334-23.894-53.334-53.334-53.334-53.334 23.894-53.334 53.334z" />
<glyph unicode="&#xe906;" glyph-name="x1" d="M225.835 652.502l225.835-225.835-225.835-225.835c-16.683-16.683-16.683-43.691 0-60.331s43.691-16.683 60.331 0l225.835 225.835 225.835-225.835c16.683-16.683 43.691-16.683 60.331 0s16.683 43.691 0 60.331l-225.835 225.835 225.835 225.835c16.683 16.683 16.683 43.691 0 60.331s-43.691 16.683-60.331 0l-225.835-225.835-225.835 225.835c-16.683 16.683-43.691 16.683-60.331 0s-16.683-43.691 0-60.331z" />
<glyph unicode="&#xe907;" glyph-name="download-button-1" d="M869.741 307.404v-233.917h-715.516v233.917h-137.522v-302.677c0-37.95 30.743-68.727 68.863-68.727h852.832c38.087 0 68.863 30.743 68.863 68.727v302.677h-137.522zM499.396 330.598l-196.889 237.913c0 0-29.957 28.283 2.528 28.283s110.946 0 110.946 0 0 19.026 0 48.368c0 83.654 0 235.898 0 297.964 0 0-4.406 16.874 21.007 16.874 25.619 0 137.829 0 156.172 0 18.309 0 17.899-14.21 17.899-14.21 0-60.187 0-217.691 0-298.613 0-26.234 0-43.245 0-43.245s62.92 0 102.407 0c39.419 0 9.735-29.615 9.735-29.615s-167.513-222.371-190.877-245.701c-16.806-16.908-32.929 1.981-32.929 1.981z" />
<glyph unicode="&#xe908;" glyph-name="verify-sign" d="M996.553 823.546c-36.629 36.628-95.977 36.628-132.605 0l-557.704-557.702-148.293 127.385c-36.127 36.129-94.696 36.129-130.855 0-36.127-36.127-36.127-94.726 0-130.853l221.55-190.297c36.127-36.129 94.696-36.129 130.855 0 3.626 3.624 6.658 7.657 9.564 11.687 0.53 0.5 1.124 0.845 1.656 1.345l605.833 605.863c36.594 36.596 36.594 95.976-0.002 132.572z" />
<glyph unicode="&#xe909;" glyph-name="star-1" d="M1001.773 493.93c20.156 19.643 27.271 48.473 18.577 75.272-8.714 26.8-31.413 45.93-59.299 49.99l-247.942 36.027c-10.56 1.538-19.684 8.161-24.4 17.736l-110.848 224.648c-12.446 25.241-37.708 40.927-65.861 40.927-28.132 0-53.394-15.686-65.84-40.927l-110.868-224.669c-4.716-9.576-13.861-16.199-24.421-17.736l-247.942-36.027c-27.866-4.039-50.585-23.191-59.299-49.99-8.694-26.8-1.579-55.629 18.577-75.272l179.395-174.863c7.648-7.464 11.155-18.208 9.35-28.706l-42.322-246.916c-3.752-21.735 1.948-42.875 16.014-59.545 21.858-25.979 60.017-33.894 90.528-17.86l221.737 116.589c9.268 4.86 20.935 4.819 30.183 0l221.757-116.589c10.785-5.68 22.289-8.55 34.161-8.55 21.673 0 42.219 9.637 56.347 26.41 14.087 16.67 19.766 37.852 16.014 59.545l-42.342 246.916c-1.804 10.519 1.702 21.243 9.35 28.706l179.395 174.884z" />
<glyph unicode="&#xe90a;" glyph-name="star" d="M1001.773 493.91c20.156 19.643 27.271 48.473 18.577 75.272-8.714 26.8-31.413 45.93-59.299 49.99l-247.942 36.027c-10.56 1.538-19.684 8.161-24.4 17.736l-110.848 224.669c-12.446 25.241-37.708 40.927-65.861 40.927-28.132 0-53.394-15.686-65.84-40.927l-110.868-224.669c-4.716-9.576-13.861-16.199-24.421-17.736l-247.942-36.047c-27.866-4.039-50.564-23.17-59.279-49.97-8.694-26.8-1.579-55.629 18.577-75.272l179.395-174.863c7.648-7.464 11.155-18.208 9.35-28.706l-42.342-246.937c-4.757-27.743 6.418-55.239 29.199-71.807 22.76-16.588 52.389-18.741 77.343-5.598l221.737 116.589c9.453 4.962 20.73 4.962 30.183 0l221.757-116.589c10.826-5.7 22.555-8.509 34.222-8.509 15.153 0 30.244 4.737 43.121 14.107 22.781 16.568 33.956 44.064 29.199 71.807l-42.363 246.916c-1.804 10.519 1.702 21.243 9.35 28.706l179.395 174.884zM772.634 283.389l42.342-246.916c2.132-12.426-2.686-24.298-12.897-31.721-10.232-7.402-22.965-8.304-34.14-2.481l-221.757 116.61c-10.683 5.598-22.453 8.427-34.181 8.427s-23.478-2.83-34.181-8.448l-221.716-116.589c-11.216-5.823-23.949-4.921-34.161 2.481-10.211 7.423-15.009 19.274-12.897 31.721l42.342 246.916c4.080 23.826-3.814 48.145-21.12 65l-179.415 174.884c-9.043 8.817-12.118 21.243-8.202 33.238 3.896 12.016 13.677 20.259 26.164 22.083l247.921 36.027c23.929 3.465 44.618 18.475 55.301 40.169l110.868 224.669c5.577 11.319 16.465 18.065 29.076 18.065 12.631 0 23.498-6.746 29.096-18.065l110.868-224.669c10.683-21.694 31.352-36.703 55.28-40.169l247.942-36.027c12.487-1.825 22.268-10.068 26.164-22.083 3.896-11.995 0.841-24.421-8.202-33.238l-179.395-174.863c-17.306-16.875-25.2-41.173-21.099-65.020z" />
<glyph unicode="&#xe90b;" glyph-name="heart1" d="M880.128 760.064c-85.606 78.541-224.41 78.541-310.016 0l-58.112-53.35-58.163 53.35c-85.606 78.541-224.358 78.541-309.965 0-96.307-88.422-96.307-231.424 0-319.795l368.128-337.869 368.128 337.869c96.256 88.371 96.256 231.424 0 319.795z" />
<glyph unicode="&#xe90c;" glyph-name="close" d="M1011.886 947.884c-16.154 16.154-42.344 16.154-58.498 0l-941.272-941.27c-16.154-16.154-16.154-42.344 0-58.498 8.076-8.080 18.664-12.116 29.25-12.116s21.172 4.038 29.25 12.118l941.27 941.27c16.152 16.152 16.152 42.342 0 58.496zM1011.884 6.612l-941.272 941.27c-16.152 16.154-42.344 16.154-58.496 0-16.154-16.152-16.154-42.342 0-58.496l941.272-941.272c8.076-8.078 18.664-12.116 29.25-12.116s21.174 4.038 29.248 12.114c16.15 16.156 16.15 42.346-0.002 58.5z" />
<glyph unicode="&#xe90d;" glyph-name="check" d="M354.171 94.536c-9.886 0-19.782 3.764-27.3 11.339l-315.552 315.552c-15.093 15.093-15.093 39.563 0 54.656s39.563 15.093 54.666 0l288.242-288.242 603.794 603.794c15.093 15.093 39.563 15.093 54.656 0s15.093-39.572 0-54.666l-631.094-631.094c-7.632-7.575-17.518-11.339-27.413-11.339z" />
<glyph unicode="&#xe90e;" glyph-name="problem" d="M512 960c-282.752 0-512-229.248-512-512s229.248-512 512-512 512 229.248 512 512-229.248 512-512 512zM512 121.173c-40.021 0-67.413 30.848-67.413 70.827 0 41.131 28.544 70.827 67.413 70.827 41.088 0 67.413-29.696 67.413-70.827 0-40.021-26.325-70.827-67.413-70.827zM538.539 391.637c-10.197-34.773-42.325-35.371-53.035 0-12.331 40.789-56.149 195.627-56.149 296.192 0 132.693 166.016 133.333 166.016 0-0.043-101.163-46.208-260.011-56.832-296.192z" />
<glyph unicode="&#xe90f;" glyph-name="left-arrow" d="M703.305-2.878c6.35-6.35 14.288-9.526 23.020-9.526s16.67 3.175 23.020 9.526c12.701 12.701 12.701 33.34 0 46.040l-404.837 404.837 404.837 404.837c12.701 12.701 12.701 33.34 0 46.040s-33.34 12.701-46.040 0l-428.651-427.857c-12.701-12.701-12.701-33.34 0-46.040l428.651-427.857z" />
<glyph unicode="&#xe910;" glyph-name="facebook-logo" d="M767.965 959.787l-132.79 0.213c-149.185 0-245.595-98.913-245.595-252.008v-116.192h-133.514c-11.537 0-20.88-9.353-20.88-20.891v-168.35c0-11.537 9.353-20.88 20.88-20.88h133.514v-424.8c0-11.537 9.343-20.88 20.88-20.88h174.198c11.537 0 20.88 9.353 20.88 20.88v424.8h156.109c11.537 0 20.88 9.343 20.88 20.88l0.064 168.35c0 5.54-2.205 10.845-6.115 14.765s-9.236 6.125-14.776 6.125h-156.163v98.498c0 47.342 11.282 71.375 72.952 71.375l89.453 0.032c11.527 0 20.869 9.353 20.869 20.88v156.322c0 11.516-9.332 20.859-20.848 20.88z" />
<glyph unicode="&#xe911;" glyph-name="add-solid" d="M563.2 512v204.8h-102.4v-204.8h-204.8v-102.4h204.8v-204.8h102.4v204.8h204.8v102.4h-204.8zM512-51.2c-282.77 0-512 229.23-512 512s229.23 512 512 512v0c282.77 0 512-229.23 512-512s-229.23-512-512-512v0z" />
<glyph unicode="&#xe912;" glyph-name="plus1" d="M819.2 460.8c0-28.314-2.458-51.2-30.771-51.2h-225.229v-225.229c0-28.262-22.886-30.771-51.2-30.771s-51.2 2.509-51.2 30.771v225.229h-225.229c-28.262 0-30.771 22.886-30.771 51.2s2.509 51.2 30.771 51.2h225.229v225.229c0 28.314 22.886 30.771 51.2 30.771s51.2-2.458 51.2-30.771v-225.229h225.229c28.314 0 30.771-22.886 30.771-51.2z" />
<glyph unicode="&#xe913;" glyph-name="arrow-left" d="M195.994 512l310.835 310.835-72.397 72.397-434.432-434.432 434.432-434.432 72.397 72.397-310.835 310.835h828.006v102.4h-828.006z" />
<glyph unicode="&#xe914;" glyph-name="arrow-down" d="M780.501 456.832l-225.835-225.835v494.336c0 23.552-19.115 42.667-42.667 42.667s-42.667-19.115-42.667-42.667v-494.336l-225.835 225.835c-16.683 16.683-43.691 16.683-60.331 0s-16.683-43.691 0-60.331l298.667-298.667c4.096-4.096 8.789-7.168 13.824-9.259s10.539-3.243 16.341-3.243c5.547 0 11.136 1.067 16.341 3.243 5.035 2.091 9.728 5.163 13.824 9.259l298.667 298.667c16.683 16.683 16.683 43.691 0 60.331s-43.691 16.683-60.331 0z" />
<glyph unicode="&#xe915;" glyph-name="arrow-left1" d="M542.165 158.166l-225.835 225.835h494.336c23.552 0 42.667 19.115 42.667 42.667s-19.115 42.667-42.667 42.667h-494.336l225.835 225.835c16.683 16.683 16.683 43.691 0 60.331s-43.691 16.683-60.331 0l-298.667-298.667c-4.096-4.096-7.168-8.789-9.259-13.824-2.176-5.205-3.243-10.795-3.243-16.341 0-10.923 4.181-21.845 12.501-30.165l298.667-298.667c16.683-16.683 43.691-16.683 60.331 0s16.683 43.691 0 60.331z" />
<glyph unicode="&#xe916;" glyph-name="photo-camera" d="M512 550.4c-84.838 0-153.6-68.792-153.6-153.6 0-84.838 68.762-153.6 153.6-153.6 84.818 0 153.6 68.762 153.6 153.6 0 84.808-68.782 153.6-153.6 153.6zM921.6 704h-122.88c-16.896 0-35.103 13.107-40.438 29.143l-31.764 95.324c-5.356 16.026-23.542 29.133-40.438 29.133h-348.16c-16.896 0-35.103-13.107-40.438-29.143l-31.764-95.324c-5.356-16.026-23.542-29.133-40.438-29.133h-122.88c-56.32 0-102.4-46.080-102.4-102.4v-460.8c0-56.32 46.080-102.4 102.4-102.4h819.2c56.32 0 102.4 46.080 102.4 102.4v460.8c0 56.32-46.080 102.4-102.4 102.4zM512 140.8c-141.384 0-256 114.616-256 256 0 141.373 114.616 256 256 256 141.363 0 256-114.627 256-256 0-141.384-114.637-256-256-256zM885.76 529.992c-19.784 0-35.84 16.036-35.84 35.84 0 19.784 16.056 35.84 35.84 35.84 19.804 0 35.84-16.056 35.84-35.84 0-19.804-16.046-35.84-35.84-35.84z" />
<glyph unicode="&#xe917;" glyph-name="cross" d="M734.618 212.531c-24.013-24.013-62.925-24.013-86.886 0l-135.731 155.136-135.731-155.085c-24.013-24.013-62.925-24.013-86.886 0-24.013 24.013-24.013 62.925 0 86.886l141.21 161.28-141.261 161.382c-24.013 24.013-24.013 62.874 0 86.886s62.874 24.013 86.886 0l135.782-155.187 135.731 155.187c24.013 24.013 62.874 24.013 86.886 0s24.013-62.925 0-86.886l-141.21-161.382 141.21-161.28c24.013-24.013 24.013-62.925 0-86.938z" />
<glyph unicode="&#xe918;" glyph-name="help-with-circle" d="M512 952.32c-271.462 0-491.52-220.058-491.52-491.52s220.058-491.52 491.52-491.52c271.411 0 491.52 220.058 491.52 491.571 0 271.411-220.109 491.469-491.52 491.469zM504.269 174.131h-2.611c-40.038 1.178-68.301 30.72-67.123 70.195 1.126 38.81 30.054 67.021 68.762 67.021l2.355-0.102c41.165-1.178 69.12-30.413 67.942-71.014-1.178-38.912-29.594-66.099-69.325-66.099zM672.768 508.518c-9.421-13.312-30.106-30.003-56.218-50.33l-28.774-19.814c-15.77-12.288-25.293-23.91-28.826-35.226-2.867-8.909-4.198-11.315-4.454-29.491v-4.608h-109.824l0.307 9.318c1.382 38.093 2.304 60.621 18.125 79.206 24.832 29.082 79.616 64.41 81.92 65.894 7.885 5.888 14.49 12.595 19.405 19.814 11.52 15.923 16.589 28.416 16.589 40.602 0 17.101-5.018 32.922-15.002 46.899-9.626 13.619-27.904 20.378-54.323 20.378-26.214 0-44.186-8.294-54.886-25.395-11.059-17.459-16.64-35.84-16.64-54.63v-4.71h-113.203l0.205 4.915c2.918 69.274 27.699 119.194 73.472 148.326 28.826 18.483 64.717 27.853 106.547 27.853 54.682 0 100.966-13.312 137.318-39.526 36.915-26.573 55.603-66.406 55.603-118.323-0.051-29.030-9.216-56.32-27.341-81.152z" />
<glyph unicode="&#xe919;" glyph-name="lock" d="M808.96 563.2h-92.16v122.88c0 148.326-68.352 235.52-204.8 235.52-136.499 0-204.8-87.194-204.8-235.52v-122.88h-102.4c-28.314 0-51.2-33.075-51.2-61.389v-399.411c0-28.109 21.914-58.317 48.691-66.918l61.286-19.814c26.829-8.55 71.782-15.667 99.942-15.667h296.96c28.109 0 73.114 7.117 99.891 15.718l61.235 19.814c26.829 8.55 48.794 38.758 48.794 66.867v399.411c0 28.314-33.178 61.389-61.44 61.389zM614.4 563.2h-204.8v143.411c0 73.984 40.806 112.589 102.4 112.589s102.4-38.605 102.4-112.589v-143.411z" />
<glyph unicode="&#xe91a;" glyph-name="photo" d="M511.986 959.997c-282.759 0-511.986-229.238-511.986-511.997s229.227-511.993 511.986-511.993 512.014 229.244 512.014 511.993c-0.003 282.769-229.255 511.997-512.014 511.997zM241.495 185.701c-13.589 0-24.593 10.994-24.593 24.583v475.443c0 13.582 11.005 24.583 24.593 24.583h541.007c13.589 0 24.593-11.005 24.593-24.583v-263.105h-57.829v230.743h-475.095v-317.534h27.133l109.634 170.965 109.654-170.968h31.543l-52.159 81.33 33.994 53.009 86.157-134.333h34.738v-120.017h79.965v-30.119h-493.332zM707.466 546.841c0-28.099-22.788-50.886-50.886-50.886s-50.886 22.788-50.886 50.886 22.788 50.886 50.886 50.886 50.886-22.798 50.886-50.886zM826.261 251.23v-79.951h-56.003v79.951h-79.968v56.020h79.968v79.951h56.006v-79.951h79.958v-56.020h-79.961z" />
<glyph unicode="&#xe91b;" glyph-name="add-outline" d="M563.2 512h204.8v-102.4h-204.8v-204.8h-102.4v204.8h-204.8v102.4h204.8v204.8h102.4v-204.8zM512-51.2c-282.77 0-512 229.23-512 512s229.23 512 512 512v0c282.77 0 512-229.23 512-512s-229.23-512-512-512v0zM512 51.2c226.216 0 409.6 183.384 409.6 409.6s-183.384 409.6-409.6 409.6v0c-226.216 0-409.6-183.384-409.6-409.6s183.384-409.6 409.6-409.6v0z" />
<glyph unicode="&#xe91c;" glyph-name="add_photo_alternate" d="M214 128.667h512l-172 212-128-170-84 128zM682 468.667h128v-340q0-34-25-60t-59-26h-512q-34 0-60 26t-26 60v512q0 34 26 59t60 25h340v-128h128v-128zM810 640.667v-128h-84v128h-128v84h128v128h84v-128h128v-84h-128z" />
<glyph unicode="&#xe91d;" glyph-name="photo-1" d="M994.755-64h-965.51c-16.156 0-29.245 13.089-29.245 29.245v965.477c0 16.156 13.089 29.278 29.245 29.278h965.51c16.156 0 29.245-13.122 29.245-29.278v-965.477c0-16.156-13.089-29.245-29.245-29.245zM58.523-5.543h906.987v907.020h-906.987v-907.020zM29.245-64c-6.957 0-13.947 2.44-19.552 7.484-12.001 10.781-12.99 29.311-2.209 41.312l292.581 325.749c5.275 5.869 12.661 9.331 20.541 9.66 7.682 0.396 15.529-2.506 21.266-7.847l76.096-71.414 230.497 227.893c11.045 10.88 28.684 11.276 40.158 0.89l325.749-293.537c6.165-5.539 9.66-13.419 9.66-21.728v-189.185c0-16.156-13.089-29.245-29.245-29.245h-325.749c-7.451 0-14.573 2.835-20.013 7.913l-325.42 305.209-272.601-303.461c-5.77-6.429-13.749-9.693-21.761-9.693zM680.579-5.543h284.932v146.95l-295.548 266.336-209.297-206.89 219.914-206.396zM330.629 439.197c-77.448 0-140.455 63.040-140.455 140.455 0 77.448 63.007 140.455 140.455 140.455s140.422-63.007 140.422-140.455c0-77.415-63.007-140.455-140.422-140.455zM330.629 661.55c-45.17 0-81.932-36.729-81.932-81.899 0-45.137 36.762-81.899 81.932-81.899s81.899 36.762 81.899 81.899c0 45.17-36.762 81.899-81.899 81.899z" />
<glyph unicode="&#xe91e;" glyph-name="notifications_active" d="M512 0.667q-36 0-61 25t-25 59h170q0-36-24-60t-60-24zM768 468.667v-212l86-86v-42h-684v42l86 86v212q0 100 51 174t141 96v30q0 26 18 45t46 19 46-19 18-45v-30q90-22 141-96t51-174zM852 490.667q-4 72-48 152t-102 122l60 60q166-128 176-334h-86zM324 764.667q-58-42-103-122t-49-152h-86q10 206 176 334z" />
<glyph unicode="&#xe91f;" glyph-name="keyboard_arrow_up" d="M316 280.667l-60 60 256 256 256-256-60-60-196 196z" />
<glyph unicode="&#xe920;" glyph-name="keyboard_arrow_right" d="M366 230.667l196 196-196 196 60 60 256-256-256-256z" />
<glyph unicode="&#xe921;" glyph-name="keyboard_arrow_left" d="M658 230.667l-60-60-256 256 256 256 60-60-196-196z" />
<glyph unicode="&#xe922;" glyph-name="keyboard_arrow_down" d="M316 572.667l196-196 196 196 60-60-256-256-256 256z" />
<glyph unicode="&#xe923;" glyph-name="trash1" d="M967.111 682.667h-227.556v170.667c0 31.417-25.472 56.889-56.889 56.889h-341.333c-31.417 0-56.889-25.472-56.889-56.889v-170.667h-227.556c-31.417 0-56.889-25.472-56.889-56.889v-56.889h113.778v-512c0-31.417 25.472-56.889 56.889-56.889h682.667c31.417 0 56.889 25.472 56.889 56.889v512h113.778v56.889c0 31.417-25.472 56.889-56.889 56.889zM398.222 796.444h227.556v-113.778h-227.556v113.778zM796.444 113.778h-568.889v455.111h568.889v-455.111zM369.778 227.555h56.889c15.723 0 28.444 12.736 28.444 28.444v170.667c0 15.708-12.722 28.444-28.444 28.444h-56.889c-15.723 0-28.444-12.736-28.444-28.444v-170.667c0-15.708 12.722-28.444 28.444-28.444zM597.333 227.555h56.889c15.723 0 28.444 12.736 28.444 28.444v170.667c0 15.708-12.722 28.444-28.444 28.444h-56.889c-15.723 0-28.444-12.736-28.444-28.444v-170.667c0-15.708 12.722-28.444 28.444-28.444z" />
<glyph unicode="&#xe924;" glyph-name="dots-three-horizontal" d="M512.051 573.44c-62.208 0-112.691-50.432-112.691-112.64s50.483-112.64 112.691-112.64c62.208 0 112.589 50.432 112.589 112.64s-50.381 112.64-112.589 112.64zM153.651 573.44c-62.208 0-112.691-50.432-112.691-112.64s50.483-112.64 112.691-112.64c62.208 0 112.589 50.483 112.589 112.64s-50.381 112.64-112.589 112.64zM870.451 573.44c-62.208 0-112.691-50.432-112.691-112.64s50.483-112.64 112.691-112.64c62.208 0 112.589 50.432 112.589 112.64s-50.381 112.64-112.589 112.64z" />
<glyph unicode="&#xe925;" glyph-name="dots-three-vertical" d="M512.051 573.44c-62.208 0-112.691-50.432-112.691-112.64s50.483-112.64 112.691-112.64c62.208 0 112.589 50.432 112.589 112.64s-50.381 112.64-112.589 112.64zM512.051 706.56c62.208 0 112.589 50.483 112.589 112.64s-50.381 112.64-112.589 112.64c-62.208 0-112.691-50.432-112.691-112.64s50.483-112.64 112.691-112.64zM512.051 215.040c-62.208 0-112.691-50.432-112.691-112.64s50.483-112.64 112.691-112.64c62.208 0 112.589 50.432 112.589 112.64s-50.381 112.64-112.589 112.64z" />
<glyph unicode="&#xe926;" glyph-name="facebook" d="M870.4 921.6h-716.8c-56.32 0-102.4-46.080-102.4-102.4v-716.8c0-56.371 46.080-102.4 102.4-102.4h358.4v358.4h-102.4v126.72h102.4v104.96c0 110.797 62.054 188.621 192.819 188.621l92.314-0.102v-133.376h-61.286c-50.893 0-70.246-38.195-70.246-73.626v-86.528h131.482l-29.082-126.669h-102.4v-358.4h204.8c56.32 0 102.4 46.029 102.4 102.4v716.8c0 56.32-46.080 102.4-102.4 102.4z" />
<glyph unicode="&#xe927;" glyph-name="information-small-letter-i-symbol" d="M600.476 54.501l81.442-4.326v-114.209h-339.835v108.555l47.142 4.258c25.683 2.929 41.385 11.445 41.385 45.711v396.956c0 31.541-8.584 41.521-35.731 41.521l-49.935 2.793v118.501h255.532v-599.76zM500.572 960c62.844 0 108.555-47.244 108.555-107.158 0-60.051-45.711-104.297-109.986-104.297-65.637 0-108.555 44.314-108.555 104.297 0 59.949 42.918 107.158 109.986 107.158z" />
<glyph unicode="&#xe928;" glyph-name="valentines-heart" d="M1024 614.992c0 152.723-123.808 276.525-276.532 276.525-99.725 0-186.817-52.962-235.471-132.113-48.648 79.151-135.777 132.113-235.501 132.113-152.723 0-276.496-123.802-276.496-276.525 0-83.149 36.846-157.539 94.916-208.196l391.846-391.863c6.692-6.692 15.768-10.452 25.234-10.452s18.542 3.76 25.234 10.452l391.846 391.863c58.073 50.658 94.923 125.047 94.923 208.196z" />
<glyph unicode="&#xe929;" glyph-name="home" d="M409.6-51.2h-256v512h-153.6l512 512 512-512h-153.6v-512h-256v307.2h-204.8v-307.2z" />
<glyph unicode="&#xe92a;" glyph-name="plus" d="M213.333 384h256v-256c0-23.552 19.115-42.667 42.667-42.667s42.667 19.115 42.667 42.667v256h256c23.552 0 42.667 19.115 42.667 42.667s-19.115 42.667-42.667 42.667h-256v256c0 23.552-19.115 42.667-42.667 42.667s-42.667-19.115-42.667-42.667v-256h-256c-23.552 0-42.667-19.115-42.667-42.667s19.115-42.667 42.667-42.667z" />
<glyph unicode="&#xe92b;" glyph-name="add" d="M1007.484 464.516h-478.968v478.968c0 9.121-7.395 16.516-16.516 16.516s-16.516-7.395-16.516-16.516v-478.968h-478.968c-9.121 0-16.516-7.395-16.516-16.516s7.395-16.516 16.516-16.516h478.968v-478.968c0-9.121 7.395-16.516 16.516-16.516s16.516 7.395 16.516 16.516v478.968h478.968c9.121 0 16.516 7.395 16.516 16.516s-7.395 16.516-16.516 16.516z" />
<glyph unicode="&#xe92c;" glyph-name="plus2" d="M981.334 490.666h-426.668v426.668c0 23.564-19.102 42.666-42.666 42.666s-42.666-19.102-42.666-42.666v-426.666h-426.668c-23.564-0.002-42.666-19.104-42.666-42.668s19.102-42.666 42.666-42.666h426.666v-426.666c0-23.564 19.102-42.666 42.666-42.666s42.666 19.102 42.666 42.666v426.666h426.666c23.564 0 42.666 19.102 42.666 42.666s-19.098 42.666-42.662 42.666z" />
<glyph unicode="&#xe92d;" glyph-name="inbox" d="M1013.501 407.659l-209.455 255.999c-8.865 10.796-22.091 17.068-36.046 17.068h-139.636c-12.864 0-23.273-10.409-23.273-23.273v-46.545c0-12.864 10.409-23.273 23.273-23.273h117.591l152.304-186.181h-106.986c-51.319 0-93.092-41.749-93.092-93.092 0-25.658-20.865-46.545-46.545-46.545h-279.273c-25.682 0-46.545 20.887-46.545 46.545 0 51.34-41.773 93.092-93.092 93.092h-106.986l152.304 186.181h117.591c12.864 0 23.273 10.409 23.273 23.273v46.545c0 12.864-10.409 23.273-23.273 23.273h-139.636c-13.955 0-27.181-6.273-36.046-17.068l-209.455-255.999c-5.705-6.977-9.423-15.161-10.501-23.485 0-2.505 0-355.082 0-355.082 0-51.34 41.773-93.092 93.092-93.092h837.819c51.319 0 93.092 41.749 93.092 93.092 0 0 0 350.721 0 354.666-1.076 8.328-4.793 16.918-10.501 23.902zM355.907 724.457c9.092-9.087 23.823-9.087 32.915 0l76.634 76.634v-446.182c0-12.853 10.42-23.273 23.273-23.273h46.545c12.853 0 23.273 10.42 23.273 23.273v446.182l76.634-76.634c9.092-9.087 23.823-9.087 32.915 0l32.904 32.906c9.092 9.087 9.092 23.823 0 32.913l-156.092 156.087c-9.092 9.092-21 13.636-32.908 13.636s-23.819-4.545-32.908-13.636l-156.087-156.087c-9.092-9.087-9.092-23.823 0-32.913l32.902-32.906z" />
<glyph unicode="&#xe92e;" glyph-name="image" d="M266.647 169.337c-68.306 0-129.066 43.735-151.129 108.846l-1.492 4.906c-5.203 17.243-7.383 31.743-7.383 46.251v290.913l-103.51-345.524c-13.313-50.822 17.024-103.51 67.924-117.55l659.774-176.692c8.235-2.133 16.469-3.156 24.579-3.156 42.493 0 81.322 28.204 92.205 69.767l38.438 122.237zM383.986 617.348c47.064 0 85.33 38.274 85.33 85.338s-38.267 85.338-85.33 85.338-85.338-38.274-85.338-85.338 38.274-85.338 85.338-85.338zM917.327 916.027h-640.016c-58.791 0-106.667-47.876-106.667-106.674v-469.34c0-58.798 47.876-106.674 106.667-106.674h640.016c58.798 0 106.674 47.876 106.674 106.674v469.34c0 58.798-47.876 106.674-106.674 106.674zM277.311 830.689h640.016c11.782 0 21.336-9.555 21.336-21.336v-302.898l-134.785 157.277c-14.297 16.766-34.993 25.727-57.22 26.235-22.102-0.125-42.837-9.938-57.001-26.923l-158.473-190.208-51.626 51.501c-29.18 29.18-76.674 29.18-105.815 0l-117.761-117.722v402.736c0 11.782 9.555 21.336 21.329 21.336z" />
<glyph unicode="&#xe92f;" glyph-name="pencil" d="M632.375 788.009l-563.419-563.46c-2.835-2.843-4.881-6.433-5.856-10.291l-62.45-250.659c-1.868-7.545 0.349-15.57 5.856-21.076 4.167-4.167 9.844-6.473 15.651-6.473 1.779 0 3.598 0.219 5.369 0.666l250.659 62.458c3.907 0.975 7.456 3.013 10.291 5.848l563.468 563.419zM991.527 864.834l-62.718 62.718c-41.917 41.917-114.974 41.877-156.843 0l-76.825-76.825 219.561-219.561 76.825 76.825c20.938 20.93 32.472 48.789 32.472 78.417s-11.533 57.487-32.472 78.426z" />
<glyph unicode="&#xe930;" glyph-name="picture" d="M568.2 800c-8-1.8-23.4-7.8-34-13-16.4-8.2-22-12.4-38.4-28.8-16.2-16.4-20.4-22-28.4-38.2-13.2-27.2-16.2-40.2-16.2-70-0.2-20.2 0.8-28 4.4-40.8 14.6-50.8 51.2-89.4 100.4-106.2 103.4-35.2 209.8 46.4 203.4 156.2-4 68.8-53 125.8-121.4 141.8-17.8 4-51.2 3.6-69.8-1zM627.6 706.8c34-14 48.4-51.4 32.4-84-22.6-46-87-46.2-109.8-0.4-17.8 35.4 2.2 77.8 41.2 87.6 9.6 2.4 26.6 0.8 36.2-3.2zM307 614.2c-4.4-2-10.8-6.8-14.4-10.4-11.2-12-287-412.4-290-420.8-2.2-6.8-2.6-27.2-2.2-111.4l0.6-103 6-9.8c3.8-6 9.8-12 15.8-15.8l9.8-6h958.8l9.8 6c6 3.8 12 9.8 15.8 15.8l6 9.8v106.2c0 97.2-0.2 106.8-3.6 113.2-3.2 6.4-37.2 52.6-154.4 210.2-37.8 50.6-43.8 57.8-51.8 61.8-18.6 9-36.6 7.2-51-5.2-4.2-3.8-40.8-51.4-81.2-105.8s-74-99-74.8-99c-0.6 0.2-55.6 79-122.2 175.2-66.6 96.4-124 178-127.8 181.2-3.8 3.4-9.8 7.4-13.4 8.8-9.4 4-26.2 3.4-35.8-1zM450 311c71.8-103.6 121.4-173.6 126.4-177.8 16.2-14 40.8-14 57.2-0.2 4.4 3.8 41.4 52 82.4 107 40.8 55 74.8 100 75.6 99.8 0.8 0 32.2-41.6 69.8-92.4l68.4-92.4 0.2-62.4v-62.6l-70.4-0.2c-38.8 0-134.4 0-212.6 0-78 0.2-234.4 0.2-347.4 0.2h-205.6v125.4l115.6 167.2c110.6 160.2 115.6 167 118.8 163.2 1.8-2 56.6-80.8 121.6-174.8z" />
<glyph unicode="&#xe931;" glyph-name="external-link1" d="M725.333 384v-256c0-11.776-4.736-22.4-12.501-30.165s-18.389-12.501-30.165-12.501h-469.333c-11.776 0-22.4 4.736-30.165 12.501s-12.501 18.389-12.501 30.165v469.333c0 11.776 4.736 22.4 12.501 30.165s18.389 12.501 30.165 12.501h256c23.552 0 42.667 19.115 42.667 42.667s-19.115 42.667-42.667 42.667h-256c-35.328 0-67.413-14.379-90.496-37.504s-37.504-55.168-37.504-90.496v-469.333c0-35.328 14.379-67.413 37.504-90.496s55.168-37.504 90.496-37.504h469.333c35.328 0 67.413 14.379 90.496 37.504s37.504 55.168 37.504 90.496v256c0 23.552-19.115 42.667-42.667 42.667s-42.667-19.115-42.667-42.667zM456.832 311.168l396.501 396.501v-153.003c0-23.552 19.115-42.667 42.667-42.667s42.667 19.115 42.667 42.667v256c0 5.803-1.152 11.307-3.243 16.341s-5.163 9.728-9.216 13.781c-0.043 0.043-0.043 0.043-0.085 0.085-3.925 3.925-8.619 7.083-13.781 9.216-5.035 2.091-10.539 3.243-16.341 3.243h-256c-23.552 0-42.667-19.115-42.667-42.667s19.115-42.667 42.667-42.667h153.003l-396.501-396.501c-16.683-16.683-16.683-43.691 0-60.331s43.691-16.683 60.331 0z" />
<glyph unicode="&#xe932;" glyph-name="tumblr-logo" d="M967.665 903.672c-37.54 37.55-82.77 56.328-135.654 56.328h-640.005c-52.884 0-98.114-18.778-135.671-56.328-37.55-37.557-56.328-82.784-56.328-135.671v-639.998c0-52.882 18.778-98.114 56.328-135.671 37.557-37.557 82.787-56.335 135.671-56.335h639.998c52.884 0 98.114 18.778 135.654 56.335 37.557 37.557 56.335 82.787 56.335 135.671v639.998c-0.002 52.886-18.781 98.121-56.328 135.671zM748.675 105.998c-34.218-15.997-63.999-26.881-89.339-32.649-27.546-6.218-56.225-9.333-86-9.333-34.664 0-65.776 4.441-93.336 13.328-27.11 8.887-50.222 21.557-69.33 38.003-18.666 16-31.782 33.337-39.334 52.004-7.563 19.098-11.334 45.996-11.334 80.652v269.34h-84.664v108.666c30.225 10.22 55.999 24.219 77.332 42.003 21.784 18.664 39.114 40.658 52.001 65.993 12.889 25.333 21.774 57.998 26.669 98.004h109.331v-194.005h182.67v-120.659h-182.67v-196.671c0-43.999 2.445-72.669 7.337-86.007 4.441-12.432 13.104-22.444 26.003-29.998 16.443-10.227 35.99-15.332 58.668-15.332 38.213 0 76.891 12.441 115.998 37.323v-120.663h-0.002z" />
<glyph unicode="&#xe933;" glyph-name="globe" d="M512 952.32c-271.104 0-491.571-220.518-491.571-491.52s220.467-491.52 491.571-491.52c271.002 0 491.52 220.518 491.52 491.52s-220.518 491.52-491.52 491.52zM931.226 460.8c0-95.898-32.563-184.32-86.835-254.976-15.36 11.981-31.693 44.39-16.333 77.978 15.514 33.792 19.558 112.026 15.974 142.49-3.379 30.413-19.2 103.68-62.157 104.397-42.906 0.614-72.346 14.797-97.843 65.69-52.89 105.882 99.277 126.208 46.387 184.781-14.797 16.486-91.29-67.686-102.502 44.493-0.717 8.038 6.912 20.070 17.203 32.563 166.093-55.808 286.106-212.838 286.106-397.414zM454.4 875.878c-10.035-19.558-36.506-27.494-52.582-42.189-35.021-31.693-50.074-27.29-68.915-57.702-18.995-30.413-80.23-74.189-80.23-96.205s30.925-47.923 46.387-42.906c15.462 5.12 56.269 4.813 80.23-3.584 24.013-8.499 200.397-16.998 144.179-166.093-17.818-47.411-95.898-39.424-116.685-117.914-3.123-11.52-13.926-60.723-14.592-76.8-1.28-24.883 17.613-118.682-6.4-118.682-24.115 0-88.986 83.917-88.986 99.123s-16.794 68.506-16.794 114.176c0 45.619-77.722 44.902-77.722 105.574 0 54.682 42.138 81.92 32.666 108.186-9.267 26.112-83.302 26.982-114.176 30.208 53.914 139.827 180.736 243.61 333.619 264.806zM380.109 62.976c25.19 13.312 27.75 30.515 50.586 31.386 26.112 1.178 47.36 10.189 76.8 16.691 26.112 5.683 72.858 32.205 113.971 35.584 34.714 2.816 103.168-1.792 121.6-35.277-66.304-44.083-145.818-69.786-231.117-69.786-46.029 0-90.368 7.629-131.84 21.402z" />
<glyph unicode="&#xe934;" glyph-name="tumblr" d="M798.72 41.165c-39.782-18.995-75.776-32.307-107.981-39.987-32.256-7.578-67.123-11.418-104.602-11.418-42.547 0-80.179 5.478-112.896 16.282-32.717 10.906-60.57 26.419-83.712 46.49-23.091 20.224-39.117 41.574-48.026 64.205-8.909 22.682-13.363 55.603-13.363 98.611v330.496h-102.861v133.325c36.557 11.981 67.891 29.184 93.952 51.712 26.112 22.426 47.002 49.408 62.822 80.896 15.77 31.386 26.573 71.475 32.563 120.064h132.352v-238.182h220.877v-147.814h-220.877v-241.613c0-54.579 2.867-89.702 8.602-105.216 5.683-15.514 16.333-27.904 31.846-37.12 20.634-12.493 44.186-18.79 70.707-18.79 47.104 0 94.003 15.514 140.595 46.49v-148.429z" />
<glyph unicode="&#xe935;" glyph-name="foreign" d="M603.928 960v-87.772h274.988l-593.816-593.816 62.062-62.064 588.084 588.084v-268.66h87.77v424.228zM936.228 448v-424.228h-848.456v848.456h428.98v87.772h-516.752v-1024h1024v512z" />
<glyph unicode="&#xe936;" glyph-name="refresh" d="M455.874 170.348h-46.741c-134.912 22.064-238.203 139.554-238.203 280.692 0 47.296 12.142 91.534 32.651 130.773l34.875-48.352c25.397-35.179 80.169-25.371 91.813 16.452l66.11 237.758c9.198 33.013-15.646 65.719-49.909 65.664l-237.451-0.363c-42.183-0.055-66.555-47.852-41.877-82.087l64.19-88.951c-46.489-65.136-74.084-144.722-74.084-230.894 0-199.076 146-364.055 336.684-393.513 5.196-0.805 10.256-0.583 15.2 0.055v-0.693h46.741c31.012 0 56.133 25.122 56.133 56.162v1.14c0 31.012-25.122 56.158-56.133 56.158zM956.871 139.308l-64.219 88.951c46.517 65.138 74.084 144.722 74.084 230.894 0 199.076-145.972 364.057-336.656 393.54-5.198 0.805-10.256 0.583-15.202-0.084v0.724h-46.768c-30.985 0-56.105-25.148-56.105-56.16v-1.14c0-31.040 25.12-56.188 56.105-56.188h46.768c134.914-22.064 238.174-139.554 238.174-280.692 0-47.296-12.142-91.534-32.622-130.773l-34.903 48.352c-25.371 35.18-80.171 25.371-91.785-16.423l-66.137-237.756c-9.17-33.042 15.671-65.721 49.936-65.666l237.451 0.334c42.185 0.057 66.555 47.881 41.879 82.087z" />
<glyph unicode="&#xe937;" glyph-name="house" d="M1010.034 522.238l-469.334 426.666c-3.052 2.774-6.404 5.028-9.946 6.762-0.158 0.076-0.322 0.132-0.48 0.208-11.544 5.476-25.006 5.476-36.552 0-0.158-0.074-0.322-0.13-0.48-0.208-3.542-1.734-6.894-3.988-9.946-6.762l-469.33-426.666c-17.436-15.85-18.722-42.836-2.87-60.272 15.85-17.436 42.836-18.722 60.272-2.87l13.966 12.696v-493.126c0-23.564 19.102-42.666 42.666-42.666h768c23.564 0 42.666 19.102 42.666 42.666v493.126l13.966-12.696c17.436-15.852 44.42-14.566 60.272 2.87s14.566 44.42-2.87 60.272zM426.666 21.332v256c0 47.134 38.198 85.334 85.334 85.334s85.334-38.198 85.334-85.334v-256h-170.668zM853.334 21.332h-170.666v256c0 94.264-76.404 170.668-170.668 170.668s-170.666-76.404-170.666-170.666v-256h-170.668v528.026l341.334 310.31 341.334-310.31v-528.028z" />
<glyph unicode="&#xe938;" glyph-name="envelope" d="M21.376 769.688c140.54-119.022 387.144-328.418 459.624-393.708 9.73-8.812 20.166-13.292 31-13.292 10.812 0 21.23 4.438 30.938 13.208 72.542 65.354 319.146 274.77 459.688 393.792 8.75 7.396 10.084 20.396 3 29.438-16.376 20.894-40.792 32.874-66.96 32.874h-853.332c-26.166 0-50.584-11.98-66.958-32.876-7.084-9.040-5.75-22.040 3-29.436zM1011.626 705.188c-7.562 3.52-16.458 2.292-22.75-3.084-155.856-132.124-354.772-301.48-417.356-357.874-35.126-31.708-83.876-31.708-119.084 0.042-66.708 60.104-290.084 250-417.312 357.834-6.334 5.376-15.25 6.562-22.75 3.084-7.54-3.502-12.374-11.044-12.374-19.356v-536.5c0-47.064 38.27-85.334 85.334-85.334h853.334c47.062 0 85.332 38.27 85.332 85.334v536.5c0 8.312-4.834 15.874-12.374 19.354z" />
<glyph unicode="&#xe939;" glyph-name="bell" d="M910.222 341.333h-56.889v227.556c0 188.514-152.834 341.333-341.333 341.333-188.514 0-341.333-152.82-341.333-341.333v-227.556h-56.889c-31.417 0-56.889-25.472-56.889-56.889s25.472-56.889 56.889-56.889h796.444c31.417 0 56.889 25.472 56.889 56.889s-25.472 56.889-56.889 56.889zM739.556 341.333h-455.111v227.556c0 125.472 102.084 227.556 227.556 227.556s227.556-102.084 227.556-227.556v-227.556zM398.222 113.778c0-62.834 50.944-113.778 113.778-113.778s113.778 50.944 113.778 113.778v56.889h-227.556v-56.889z" />
<glyph unicode="&#xe93a;" glyph-name="up-arrow-1" d="M565.333 192h-106.667c-29.397 0-53.333 23.936-53.333 53.333v245.333h-117.333c-28.032 0-42.581 33.749-23.168 54.101l224 234.667c12.075 12.629 34.261 12.629 46.336 0l224-234.667c19.413-20.352 4.864-54.101-23.168-54.101h-117.333v-245.333c0-29.397-23.936-53.333-53.333-53.333zM896-64h-768c-70.571 0-128 57.429-128 128v213.333c0 70.571 57.429 128 128 128h64c23.552 0 42.667-19.115 42.667-42.667s-19.115-42.667-42.667-42.667h-64c-23.509 0-42.667-19.157-42.667-42.667v-213.333c0-23.509 19.157-42.667 42.667-42.667h768c23.509 0 42.667 19.157 42.667 42.667v213.333c0 23.509-19.157 42.667-42.667 42.667h-64c-23.552 0-42.667 19.115-42.667 42.667s19.115 42.667 42.667 42.667h64c70.571 0 128-57.429 128-128v-213.333c0-70.571-57.429-128-128-128z" />
<glyph unicode="&#xe93b;" glyph-name="upload-1" d="M994.662 459.844c-16.299 0-29.338-13.039-29.338-29.338v-266.866c0-72.584-59.11-131.477-131.477-131.477h-643.694c-72.584 0-131.477 59.11-131.477 131.477v271.212c0 16.299-13.039 29.338-29.338 29.338s-29.338-13.039-29.338-29.338v-271.212c0-104.964 85.406-190.153 190.153-190.153h643.694c104.964 0 190.153 85.406 190.153 190.153v266.866c0 16.081-13.039 29.338-29.338 29.338zM346.187 685.854l136.475 136.475v-595.233c0-16.299 13.039-29.338 29.338-29.338s29.338 13.039 29.338 29.338v595.233l136.475-136.475c5.65-5.65 13.256-8.693 20.645-8.693 7.606 0 14.995 2.825 20.645 8.693 11.518 11.518 11.518 29.99 0 41.508l-186.458 186.458c-5.433 5.433-13.039 8.693-20.645 8.693-7.823 0-15.212-3.042-20.645-8.693l-186.458-186.458c-11.518-11.518-11.518-29.99 0-41.508 11.301-11.301 29.99-11.301 41.29 0z" />
<glyph unicode="&#xe93c;" glyph-name="upload-2" d="M364.922 649.040l99.078 99.078v-524.118c0-26.51 21.49-48 48-48s48 21.49 48 48v0 524.118l99.078-99.078c8.695-8.741 20.733-14.151 34.033-14.151 26.51 0 48 21.49 48 48 0 13.301-5.41 25.338-14.149 34.031l-181.020 181.022c-8.686 8.687-20.687 14.060-33.942 14.060s-25.256-5.373-33.942-14.060l-181.018-181.020c-8.741-8.695-14.151-20.733-14.151-34.033 0-26.51 21.49-48 48-48 13.301 0 25.338 5.41 34.031 14.149l0.002 0.002zM928 496c-26.51 0-48-21.49-48-48v0-368h-736v368c0 26.51-21.49 48-48 48s-48-21.49-48-48v0-384c0-44.183 35.817-80 80-80v0h768c44.183 0 80 35.817 80 80v0 384c0 26.51-21.49 48-48 48v0z" />
<glyph unicode="&#xe93d;" glyph-name="bubble" d="M512 768c-54.932 0-107.988-8.662-157.694-25.742-46.712-16.054-88.306-38.744-123.628-67.444-66.214-53.798-102.678-122.984-102.678-194.814 0-40.298 11.188-79.378 33.252-116.152 22.752-37.92 56.982-72.586 98.988-100.252 30.356-19.992 50.78-51.948 56.176-87.894 1.8-11.984 2.928-24.088 3.37-36.124 7.47 6.194 14.75 12.846 21.88 19.976 24.154 24.152 56.78 37.49 90.502 37.49 5.368 0 10.762-0.336 16.156-1.024 20.974-2.666 42.398-4.020 63.676-4.020 54.934 0 107.988 8.66 157.694 25.742 46.712 16.054 88.306 38.744 123.628 67.444 66.214 53.796 102.678 122.984 102.678 194.814s-36.464 141.016-102.678 194.814c-35.322 28.698-76.916 51.39-123.628 67.444-49.706 17.080-102.76 25.742-157.694 25.742zM512 896v0c282.77 0 512-186.25 512-416 0-229.752-229.23-416-512-416-27.156 0-53.81 1.734-79.824 5.044-109.978-109.978-241.25-129.7-368.176-132.596v26.916c68.536 33.578 128 94.74 128 164.636 0 9.754-0.758 19.33-2.164 28.696-115.796 76.264-189.836 192.754-189.836 323.304 0 229.75 229.23 416 512 416z" />
<glyph unicode="&#xe93e;" glyph-name="heart2" d="M1024 601.844c0 162.458-131.7 294.156-294.156 294.156-86.362 0-164.030-37.218-217.844-96.49-53.814 59.272-131.482 96.49-217.844 96.49-162.458 0-294.156-131.698-294.156-294.156 0-86.362 37.218-164.030 96.49-217.844h-0.49l320-320c32-32 64-64 96-64s64 32 96 64l319.51 320c59.272 53.814 96.49 131.482 96.49 217.844zM841.468 478.768l-323.978-324.258c-1.678-1.678-3.532-3.532-5.49-5.48-1.96 1.95-3.814 3.802-5.49 5.48l-323.978 324.256c-35.166 31.928-54.532 75.638-54.532 123.078 0 91.618 74.538 166.156 166.156 166.156 47.44 0 91.15-19.366 123.076-54.532l94.768-104.38 94.768 104.378c31.928 35.168 75.636 54.534 123.076 54.534 91.618 0 166.156-74.538 166.156-166.156 0-47.44-19.368-91.15-54.532-123.076z" />
<glyph unicode="&#xe93f;" glyph-name="heart3" d="M1024 601.844c0-86.362-37.218-164.030-96.49-217.844h0.49l-320-320c-32-32-64-64-96-64s-64 32-96 64l-319.51 320c-59.272 53.814-96.49 131.482-96.49 217.844 0 162.458 131.698 294.156 294.156 294.156 86.362 0 164.030-37.218 217.844-96.49 53.814 59.272 131.482 96.49 217.844 96.49 162.456 0 294.156-131.698 294.156-294.156z" />
<glyph unicode="&#xe940;" glyph-name="menu" d="M832 512c70.692 0 128-57.308 128-128s-57.308-128-128-128c-70.692 0-128 57.308-128 128s57.308 128 128 128zM512 512c70.692 0 128-57.308 128-128s-57.308-128-128-128c-70.692 0-128 57.308-128 128s57.308 128 128 128zM192 512c70.692 0 128-57.308 128-128s-57.308-128-128-128c-70.692 0-128 57.308-128 128s57.308 128 128 128z" />
<glyph unicode="&#xe941;" glyph-name="notifications" d="M768 256.667l86-86v-42h-684v42l86 86v212q0 100 51 174t141 96v30q0 26 18 45t46 19 46-19 18-45v-30q90-22 141-96t51-174v-212zM512 0.667q-36 0-61 24t-25 60h172q0-34-26-59t-60-25z" />
<glyph unicode="&#xe942;" glyph-name="trending_up" d="M682 682.667h256v-256l-98 98-268-268-170 170-256-256-60 60 316 316 170-170 208 208z" />
<glyph unicode="&#xe943;" glyph-name="checkmark" d="M983.058 896c-334.5-253.166-655.302-591.8-655.302-591.8l-231.18 207.8-96.576-98.378c95.016-89.302 315.162-325.198 389.632-413.622 209.59 350.18 427.478 611.336 634.368 850.154l-40.942 45.846z" />
<glyph unicode="&#xe944;" glyph-name="access_time" d="M534 640.667v-224l192-114-32-54-224 136v256h64zM512 84.667q140 0 241 101t101 241-101 241-241 101-241-101-101-241 101-241 241-101zM512 852.667q176 0 301-125t125-301-125-301-301-125-301 125-125 301 125 301 301 125z" />
<glyph unicode="&#xe945;" glyph-name="eye-blocked" d="M185.918 244.464c-6.982 4.328-13.472 8.496-19.4 12.42-43.842 29.004-84.188 62.2-113.606 93.48-35.604 37.852-52.912 69.788-52.912 97.634 0 27.848 17.308 59.784 52.908 97.636 29.418 31.278 69.764 64.476 113.606 93.48 65.42 43.278 197.296 115.884 345.484 115.884 12.624 0 25.118-0.564 37.476-1.556l-68.406-95.768c-105.086-8.742-199.808-59.404-249.384-90.736-77.54-49.008-123.030-98.656-134.052-118.942 11.022-20.286 56.51-69.934 134.050-118.94 3.198-2.020 6.6-4.128 10.164-6.294l-55.928-78.298zM971.088 545.636c-29.42 31.278-69.766 64.476-113.606 93.48-32.65 21.6-81.876 50.484-141.404 74.014l114.844 160.784-61.844 44.174-640-896 61.844-44.176 140.176 196.248c54.382-19.256 116.074-33.16 180.902-33.16 148.19 0 280.062 72.604 345.482 115.882 43.842 29.004 84.188 62.202 113.606 93.478 35.602 37.854 52.91 69.79 52.912 97.644-0.002 27.844-17.31 59.78-52.912 97.632zM792.316 329.060c-54.398-34.382-163.152-92.060-280.316-92.060-42.664 0-84.204 7.654-122.414 19.042l58.074 81.302c18.906-11.020 40.88-17.346 64.34-17.346 70.694 0 128 57.306 128 128 0 38.642-17.144 73.252-44.22 96.714l62.516 87.52c56.292-19.626 103.636-46.092 134.020-65.294 77.542-49.008 123.028-98.654 134.050-118.94-11.022-20.286-56.51-69.932-134.050-118.938z" />
<glyph unicode="&#xe946;" glyph-name="create" d="M884 638.667l-78-78-160 160 78 78q12 12 30 12t30-12l100-100q12-12 12-30t-12-30zM128 202.667l472 472 160-160-472-472h-160v160z" />
<glyph unicode="&#xe947;" glyph-name="image1" d="M213.333 853.334c-35.328 0-67.413-14.379-90.496-37.504s-37.504-55.168-37.504-90.496v-597.333c0-35.328 14.379-67.413 37.504-90.496s55.168-37.504 90.496-37.504h597.333c35.328 0 67.413 14.379 90.496 37.504s37.504 55.168 37.504 90.496v597.333c0 35.328-14.379 67.413-37.504 90.496s-55.168 37.504-90.496 37.504zM469.333 576c0 29.44-11.989 56.149-31.232 75.435s-45.995 31.232-75.435 31.232-56.149-11.989-75.435-31.232-31.232-45.995-31.232-75.435 11.989-56.149 31.232-75.435 45.995-31.232 75.435-31.232 56.149 11.989 75.435 31.232 31.232 45.995 31.232 75.435zM384 576c0-5.888-2.347-11.179-6.229-15.104s-9.216-6.229-15.104-6.229-11.179 2.347-15.104 6.229-6.229 9.216-6.229 15.104 2.347 11.179 6.229 15.104 9.216 6.229 15.104 6.229 11.179-2.347 15.104-6.229 6.229-9.216 6.229-15.104zM316.331 85.334l366.336 366.336 170.667-170.667v-153.003c0-11.776-4.736-22.4-12.501-30.165s-18.389-12.501-30.165-12.501zM853.333 401.664l-140.501 140.501c-16.683 16.683-43.691 16.683-60.331 0l-454.144-454.144c-5.76 2.133-10.88 5.504-15.189 9.813-7.765 7.765-12.501 18.389-12.501 30.165v597.333c0 11.776 4.736 22.4 12.501 30.165s18.389 12.501 30.165 12.501h597.333c11.776 0 22.4-4.736 30.165-12.501s12.501-18.389 12.501-30.165z" />
<glyph unicode="&#xe948;" glyph-name="flame" d="M512.328-64c-196.484 0-356.328 160.734-356.328 358.305 0 86.102 29.328 144.641 63.297 212.422 18.852 37.641 38.352 76.555 56.359 126.211l18.734 51.664c27.625-6.766 18.266-4.477 45.883-11.242l-7.266-54.477c-5.945-44.516 2.18-95.008 22.281-138.523 8.523-18.461 18.813-34.844 30.234-48.461-3.961 72.281 3.445 141.953 22.148 207.875 19.609 69.102 51.070 132.813 93.516 189.375 52.828 70.383 113.5 116.352 141.633 120.133l79.734 10.719-53.656-59.953c-24.375-27.227-37.797-62.375-37.797-98.969 0-70.734 43.391-120.93 93.625-179.055 32.211-37.258 68.711-79.492 96.359-131.375 32.008-60.063 47.563-124.281 47.563-196.344 0-197.57-159.844-358.305-356.32-358.305z" />
<glyph unicode="&#xe949;" glyph-name="x" d="M225.835 652.502l225.835-225.835-225.835-225.835c-16.683-16.683-16.683-43.691 0-60.331s43.691-16.683 60.331 0l225.835 225.835 225.835-225.835c16.683-16.683 43.691-16.683 60.331 0s16.683 43.691 0 60.331l-225.835 225.835 225.835 225.835c16.683 16.683 16.683 43.691 0 60.331s-43.691 16.683-60.331 0l-225.835-225.835-225.835 225.835c-16.683 16.683-43.691 16.683-60.331 0s-16.683-43.691 0-60.331z" />
<glyph unicode="&#xe94a;" glyph-name="north_east" d="M384 724.667v-84h282l-496-496 60-60 496 496v-282h84v426h-426z" />
<glyph unicode="&#xe94b;" glyph-name="east" d="M640 724.667l-60-60 196-196h-690v-84h690l-196-196 60-60 298 298z" />
<glyph unicode="&#xe94c;" glyph-name="image2" d="M967.104 910.222h-910.21c-31.41 0-56.876-25.467-56.876-56.878v-796.452c0-31.412 25.467-56.892 56.876-56.892h910.21c31.41 0 56.878 25.481 56.878 56.892v796.452c0 31.412-25.468 56.878-56.878 56.878zM910.197 142.222c0-15.705-12.718-28.439-28.437-28.439h-460.661l318.672 318.681 170.427-170.421v-119.82zM910.197 420.661l-123.461 123.452c-1.972 2.91-4.24 5.682-6.816 8.261-11.177 11.177-25.883 16.67-40.532 16.503-14.569 0.167-29.195-5.298-40.316-16.42-2.299-2.299-4.34-4.756-6.156-7.324l-431.339-431.351h-119.339c-15.719 0-28.437 12.734-28.437 28.439v625.778c0 15.721 12.718 28.453 28.437 28.453h739.522c15.719 0 28.437-12.732 28.437-28.453v-347.339zM341.339 682.67c-62.85 0-113.783-50.933-113.783-113.783 0-62.836 50.933-113.769 113.783-113.769 62.82 0 113.783 50.933 113.783 113.769 0 62.85-50.964 113.783-113.783 113.783z" />
<glyph unicode="&#xe94d;" glyph-name="attach_money" d="M504 472.667q44-12 73-24t61-33 49-53 17-76q0-62-41-101t-109-51v-92h-128v92q-66 14-109 56t-47 108h94q8-90 126-90 62 0 89 23t27 53q0 72-128 104-200 46-200 176 0 58 42 99t106 55v92h128v-94q66-16 101-60t37-102h-94q-4 90-108 90-52 0-83-22t-31-58q0-58 128-92z" />
<glyph unicode="&#xe94e;" glyph-name="search" d="M992.262 88.604l-242.552 206.294c-25.074 22.566-51.89 32.926-73.552 31.926 57.256 67.068 91.842 154.078 91.842 249.176 0 212.078-171.922 384-384 384-212.076 0-384-171.922-384-384s171.922-384 384-384c95.098 0 182.108 34.586 249.176 91.844-1-21.662 9.36-48.478 31.926-73.552l206.294-242.552c35.322-39.246 93.022-42.554 128.22-7.356s31.892 92.898-7.354 128.22zM384 320c-141.384 0-256 114.616-256 256s114.616 256 256 256 256-114.616 256-256-114.614-256-256-256z" />
<glyph unicode="&#xe94f;" glyph-name="question" d="M512 128c-35.346 0-64 28.652-64 63.998v65.758c0 90.218 71.964 158.51 141.56 224.552 56.26 53.392 114.44 108.602 114.44 157.692 0 95.568-69.262 192-224 192-114.376 0-210.086-85.564-222.63-199.032-3.882-35.132-35.494-60.47-70.644-56.58-35.132 3.884-60.464 35.512-56.58 70.644 9.462 85.606 50.042 164.628 114.266 222.508 64.724 58.334 148.392 90.46 235.588 90.46 94.376 0 181.382-29.656 244.996-83.504 69.002-58.412 107.004-142.4 107.004-236.496 0-104.084-81.992-181.892-154.334-250.54-47.654-45.222-101.668-96.48-101.668-131.704l0.002-65.754c0-35.348-28.652-64.002-64-64.002zM576 0c0-35.346-28.654-64-64-64s-64 28.654-64 64c0 35.346 28.654 64 64 64s64-28.654 64-64z" />
<glyph unicode="&#xe950;" glyph-name="upload1" d="M665.6 460.8v-307.2h-307.2v307.2h-256l409.6 409.6 409.6-409.6h-256zM0 51.2h1024v-102.4h-1024v102.4z" />
<glyph unicode="&#xe951;" glyph-name="upload2" d="M853.333 298.667v-170.667c0-11.776-4.736-22.4-12.501-30.165s-18.389-12.501-30.165-12.501h-597.333c-11.776 0-22.4 4.736-30.165 12.501s-12.501 18.389-12.501 30.165v170.667c0 23.552-19.115 42.667-42.667 42.667s-42.667-19.115-42.667-42.667v-170.667c0-35.328 14.379-67.413 37.504-90.496s55.168-37.504 90.496-37.504h597.333c35.328 0 67.413 14.379 90.496 37.504s37.504 55.168 37.504 90.496v170.667c0 23.552-19.115 42.667-42.667 42.667s-42.667-19.115-42.667-42.667zM469.333 707.67v-409.003c0-23.552 19.115-42.667 42.667-42.667s42.667 19.115 42.667 42.667v409.003l140.501-140.501c16.683-16.683 43.691-16.683 60.331 0s16.683 43.691 0 60.331l-213.333 213.333c-3.925 3.925-8.619 7.083-13.824 9.259-10.453 4.309-22.229 4.309-32.683 0-5.035-2.091-9.728-5.163-13.824-9.259l-213.333-213.333c-16.683-16.683-16.683-43.691 0-60.331s43.691-16.683 60.331 0z" />
<glyph unicode="&#xe952;" glyph-name="download1" d="M853.333 298.667v-170.667c0-11.776-4.736-22.4-12.501-30.165s-18.389-12.501-30.165-12.501h-597.333c-11.776 0-22.4 4.736-30.165 12.501s-12.501 18.389-12.501 30.165v170.667c0 23.552-19.115 42.667-42.667 42.667s-42.667-19.115-42.667-42.667v-170.667c0-35.328 14.379-67.413 37.504-90.496s55.168-37.504 90.496-37.504h597.333c35.328 0 67.413 14.379 90.496 37.504s37.504 55.168 37.504 90.496v170.667c0 23.552-19.115 42.667-42.667 42.667s-42.667-19.115-42.667-42.667zM554.667 401.664v409.003c0 23.552-19.115 42.667-42.667 42.667s-42.667-19.115-42.667-42.667v-409.003l-140.501 140.501c-16.683 16.683-43.691 16.683-60.331 0s-16.683-43.691 0-60.331l213.333-213.333c3.925-3.925 8.619-7.083 13.824-9.259s10.795-3.243 16.341-3.243c10.923 0 21.845 4.181 30.165 12.501l213.333 213.333c16.683 16.683 16.683 43.691 0 60.331s-43.691 16.683-60.331 0z" />
<glyph unicode="&#xe953;" glyph-name="in" d="M960 512c-35.376 0-64-28.656-64-64v-384h-768v384c0 35.344-28.624 64-64 64s-64-28.656-64-64v-448c0-35.344 28.624-64 64-64h896c35.376 0 64 28.656 64 64v448c0 35.344-28.624 64-64 64zM576 512v391.818c0 31.026-28.624 56.182-64 56.182s-64-25.156-64-56.182v-391.818h-192l256-256 256 256h-192z" />
<glyph unicode="&#xe954;" glyph-name="transfer-_2" d="M711 901.4c-13.8-7.8-20.2-24.6-15-38.8 1.2-3 38.8-42.2 83.6-87l81.4-81.6h-282c-184.4 0-284.6-0.8-289.4-2-9.8-2.8-20.8-15.2-22.6-25.8s5-25.2 14.8-31.6l6.8-4.6h285.6c157.2 0 285.8-0.6 285.8-1.6 0-0.8-36-37.4-80.2-81.4-44-44-81.4-82.4-83-85.4s-2.8-9.4-2.8-14.2c0-21.8 25-38 44.2-28.4 8 4 224.6 219.4 229 227.8 4 7.2 4 21.2 0 28.4-4.4 8.6-223.4 226.2-229.8 228.8-8.8 3.2-17.6 2.4-26.4-2.6zM295 479c-1-0.4-4.6-1.2-8-2-4.4-1-34-29.2-116.6-111.6-60.8-60.8-112-113-113.8-116.2-3.8-7.2-3.8-21.2 0-28.4 5.4-10 225.8-228.4 232-230 8.8-2 22.4 0.2 29 4.8 10.8 7.8 16 27.6 10.2 39-1.2 2.4-38.8 41-83.6 86l-81.2 81.4h282c178.8 0 284.6 0.8 288.8 2 9.4 2.6 19.8 13.2 22.4 22.4 3.6 13.6-3.8 30.2-16.2 36.6-5 2.6-43.2 3-291 3-156.8 0-285 0.6-285 1.6 0 0.8 36 37.4 80.2 81.4 45 44.8 81.4 82.8 83 86.4s2.8 9 2.8 12c0 8.4-7.6 22-14.6 26.2-6.4 3.8-16.6 6.4-20.4 5.4z" />
<glyph unicode="&#xe955;" glyph-name="share" d="M768 252.667q52 0 88-37t36-87q0-52-37-89t-87-37-87 37-37 89q0 20 2 28l-302 176q-38-34-88-34-52 0-90 38t-38 90 38 90 90 38q50 0 88-34l300 174q-4 20-4 30 0 52 38 90t90 38 90-38 38-90-38-90-90-38q-48 0-88 36l-300-176q4-20 4-30t-4-30l304-176q36 32 84 32z" />
<glyph unicode="&#xe956;" glyph-name="eye" d="M931.029 408.32c-3.541 5.077-87.979 125.611-204.501 208-60.416 42.795-136.619 66.347-214.528 66.347-77.867 0-154.069-23.552-214.613-66.347-116.523-82.389-200.875-202.923-204.416-208-10.155-14.635-10.155-34.048 0-48.683 3.541-5.077 87.893-125.611 204.416-208 60.544-42.752 136.747-66.304 214.613-66.304 77.909 0 154.112 23.552 214.528 66.347 116.523 82.389 200.96 202.923 204.501 208 10.197 14.592 10.197 34.048 0 48.64zM512 234.667c-82.517 0-149.333 66.987-149.333 149.333 0 82.517 66.816 149.333 149.333 149.333 82.347 0 149.333-66.816 149.333-149.333 0-82.347-66.987-149.333-149.333-149.333zM597.333 384c0-47.019-38.315-85.333-85.333-85.333-47.147 0-85.333 38.315-85.333 85.333 0 47.147 38.187 85.333 85.333 85.333 47.019 0 85.333-38.187 85.333-85.333z" />
<glyph unicode="&#xe957;" glyph-name="alternate_email" d="M512 298.667q52 0 90 38t38 90-38 90-90 38-90-38-38-90 38-90 90-38zM512 852.667q176 0 301-125t125-301v-62q0-64-43-108t-105-44q-78 0-126 64-64-64-152-64t-151 63-63 151 63 151 151 63 151-63 63-151v-62q0-26 19-46t45-20 45 20 19 46v62q0 140-101 241t-241 101-241-101-101-241 101-241 241-101h214v-84h-214q-176 0-301 125t-125 301 125 301 301 125z" />
<glyph unicode="&#xe958;" glyph-name="user" d="M896 42.667v85.333c0 58.88-23.936 112.299-62.464 150.869s-91.989 62.464-150.869 62.464h-341.333c-58.88 0-112.299-23.936-150.869-62.464s-62.464-91.989-62.464-150.869v-85.333c0-23.552 19.115-42.667 42.667-42.667s42.667 19.115 42.667 42.667v85.333c0 35.371 14.293 67.285 37.504 90.496s55.125 37.504 90.496 37.504h341.333c35.371 0 67.285-14.293 90.496-37.504s37.504-55.125 37.504-90.496v-85.333c0-23.552 19.115-42.667 42.667-42.667s42.667 19.115 42.667 42.667zM725.333 640c0 58.88-23.936 112.299-62.464 150.869s-91.989 62.464-150.869 62.464-112.299-23.936-150.869-62.464-62.464-91.989-62.464-150.869 23.936-112.299 62.464-150.869 91.989-62.464 150.869-62.464 112.299 23.936 150.869 62.464 62.464 91.989 62.464 150.869zM640 640c0-35.371-14.293-67.285-37.504-90.496s-55.125-37.504-90.496-37.504-67.285 14.293-90.496 37.504-37.504 55.125-37.504 90.496 14.293 67.285 37.504 90.496 55.125 37.504 90.496 37.504 67.285-14.293 90.496-37.504 37.504-55.125 37.504-90.496z" />
<glyph unicode="&#xe959;" glyph-name="tiktok" d="M534.613 959.147c55.893 0.853 111.36 0.427 166.827 0.853 3.413-65.28 26.88-131.84 74.667-177.92 47.787-47.36 115.2-69.12 180.907-76.373v-171.947c-61.44 2.133-123.307 14.933-179.2 41.387-24.32 11.093-46.933 25.173-69.12 39.68-0.427-124.587 0.427-249.173-0.853-373.333-3.413-59.733-23.040-119.040-57.6-168.107-55.893-81.92-152.747-135.253-252.16-136.96-61.013-3.413-122.027 13.227-174.080 43.947-86.187 50.773-146.773 143.787-155.733 243.627-0.853 21.333-1.28 42.667-0.427 63.573 7.68 81.067 47.787 158.72 110.080 211.627 70.827 61.44 169.813 90.88 262.4 73.387 0.853-63.147-1.707-126.293-1.707-189.44-42.24 13.653-91.733 9.813-128.853-15.787-26.88-17.493-47.36-44.373-58.027-74.667-8.96-21.76-6.4-45.653-5.973-68.693 10.24-69.973 77.653-128.853 149.333-122.453 47.787 0.427 93.44 28.16 118.187 68.693 8.107 14.080 17.067 28.587 17.493 45.227 4.267 76.373 2.56 152.32 2.987 228.693 0.427 171.947-0.427 343.467 0.853 514.987z" />
<glyph unicode="&#xe95a;" glyph-name="expand" d="M356.75 384.376l-210.562-210.564-82.188 82.188c-35.376 0-64-28.624-64-64v-192c0-35.376 28.624-64 64-64h192c35.376 0 64 28.624 64 64l-82.188 82.124 210.562 210.624-91.624 91.628zM960 960h-192c-35.376 0-64-28.656-64-64l82.188-82.188-210.564-210.562 91.624-91.624 210.562 210.532 82.19-82.158c35.376 0 64 28.624 64 64v192c0 35.344-28.624 64-64 64zM960 256l-82.188-82.188-210.562 210.564-91.624-91.624 210.562-210.624-82.188-82.128c0-35.376 28.624-64 64-64h192c35.376 0 64 28.624 64 64v192c0 35.376-28.624 64-64 64zM320 896c0 35.344-28.624 64-64 64h-192c-35.376 0-64-28.656-64-64v-192c0-35.376 28.624-64 64-64l82.188 82.156 210.562-210.532 91.624 91.624-210.562 210.564 82.188 82.188z" />
<glyph unicode="&#xe95b;" glyph-name="info-with-circle" d="M512 952.32c-271.514 0-491.571-220.058-491.571-491.52 0-271.514 220.058-491.571 491.571-491.571 271.411 0 491.52 220.058 491.52 491.571 0 271.462-220.109 491.52-491.52 491.52zM557.875 774.861c47.923 0 62.003-27.802 62.003-59.597 0-39.68-31.744-76.39-85.965-76.39-45.363 0-66.97 22.784-65.638 60.518 0 31.795 26.573 75.469 89.6 75.469zM435.098 166.4c-32.768 0-56.678 19.917-33.792 107.213l37.53 154.88c6.502 24.781 7.578 34.714 0 34.714-9.779 0-52.326-17.101-77.414-33.997l-16.333 26.778c79.616 66.509 171.162 105.523 210.33 105.523 32.768 0 38.195-38.707 21.862-98.304l-43.008-162.816c-7.629-28.774-4.352-38.707 3.277-38.707 9.83 0 41.984 11.878 73.626 36.813l18.534-24.883c-77.466-77.414-161.894-107.213-194.611-107.213z" />
<glyph unicode="&#xe95c;" glyph-name="pinterest" d="M441.19 295.578c-26.931-141.005-59.75-276.173-157.082-346.778-30.003 213.094 44.083 373.094 78.541 542.976-58.726 98.816 7.066 297.574 130.816 248.576 152.32-60.211-131.891-367.206 58.88-405.606 199.219-39.987 280.525 345.6 156.979 470.989-178.432 181.146-519.475 4.25-477.491-255.078 10.189-63.386 75.674-82.586 26.163-170.086-114.227 25.293-148.326 115.405-143.923 235.52 7.066 196.608 176.589 334.182 346.675 353.28 215.091 24.115 416.973-79.002 444.877-281.293 31.386-228.403-97.075-475.802-327.117-457.984-62.362 4.864-88.474 35.789-137.318 65.485z" />
<glyph unicode="&#xe95d;" glyph-name="information-solid" d="M150.016 98.816c-96.436 93.233-156.308 223.762-156.308 368.276 0 282.77 229.23 512 512 512 144.514 0 275.043-59.872 368.137-156.164l0.138-0.144c88.925-91.979 143.724-217.436 143.724-355.692 0-282.77-229.23-512-512-512-138.256 0-263.713 54.799-355.836 143.863l0.144-0.138zM460.8 409.6v-204.8h102.4v307.2h-102.4v-102.4zM460.8 716.8v-102.4h102.4v102.4h-102.4z" />
<glyph unicode="&#xe95e;" glyph-name="chevron-left" d="M670.165 200.832l-225.835 225.835 225.835 225.835c16.683 16.683 16.683 43.691 0 60.331s-43.691 16.683-60.331 0l-256-256c-16.683-16.683-16.683-43.691 0-60.331l256-256c16.683-16.683 43.691-16.683 60.331 0s16.683 43.691 0 60.331z" />
<glyph unicode="&#xe95f;" glyph-name="chevron-right" d="M414.165 140.502l256 256c16.683 16.683 16.683 43.691 0 60.331l-256 256c-16.683 16.683-43.691 16.683-60.331 0s-16.683-43.691 0-60.331l225.835-225.835-225.835-225.835c-16.683-16.683-16.683-43.691 0-60.331s43.691-16.683 60.331 0z" />
<glyph unicode="&#xe960;" glyph-name="play" d="M236.416 846.55c-6.528 4.267-14.507 6.784-23.083 6.784-23.552 0-42.667-19.115-42.667-42.667v-768c-0.043-7.765 2.133-15.872 6.784-23.083 12.757-19.84 39.125-25.557 58.965-12.8l597.333 384c4.864 3.072 9.344 7.424 12.8 12.8 12.757 19.84 6.997 46.208-12.8 58.965zM256 732.502l475.776-305.835-475.776-305.835z" />
<glyph unicode="&#xe961;" glyph-name="download2" d="M853.333 298.667v-170.667c0-11.776-4.736-22.4-12.501-30.165s-18.389-12.501-30.165-12.501h-597.333c-11.776 0-22.4 4.736-30.165 12.501s-12.501 18.389-12.501 30.165v170.667c0 23.552-19.115 42.667-42.667 42.667s-42.667-19.115-42.667-42.667v-170.667c0-35.328 14.379-67.413 37.504-90.496s55.168-37.504 90.496-37.504h597.333c35.328 0 67.413 14.379 90.496 37.504s37.504 55.168 37.504 90.496v170.667c0 23.552-19.115 42.667-42.667 42.667s-42.667-19.115-42.667-42.667zM554.667 401.664v409.003c0 23.552-19.115 42.667-42.667 42.667s-42.667-19.115-42.667-42.667v-409.003l-140.501 140.501c-16.683 16.683-43.691 16.683-60.331 0s-16.683-43.691 0-60.331l213.333-213.333c3.925-3.925 8.619-7.083 13.824-9.259s10.795-3.243 16.341-3.243c10.923 0 21.845 4.181 30.165 12.501l213.333 213.333c16.683 16.683 16.683 43.691 0 60.331s-43.691 16.683-60.331 0z" />
<glyph unicode="&#xe962;" glyph-name="classificar-em-ordem-decrescente" d="M247.6 511.8l-0.6-430.2-94.6 108.8c-65.4 75.4-96.8 110-101.6 112.2-28.8 13.8-60.6-16-48-45.2 1.6-3.6 59.2-71.2 128-150.4 92.6-106.4 127.4-145.2 133.6-148.6 4.8-2.6 11.8-4.4 16.8-4.4 19.8 0 15-4.8 151.2 151.8 69.4 79.8 127.4 148 128.8 151.6 12.8 30-20.2 60-48.6 44-5.8-3-35.8-36.2-100.8-111.2l-92.8-107-0.6 429.4-0.4 429.4h-70l-0.4-430.2zM481 939c-8.4-4-11.8-7-16.8-15-9.6-16-2.6-39.6 14.4-47.8 8.6-4.2 8.8-4.2 263-4.2 209.2 0 255.6 0.4 261 2.8 3.6 1.4 9.4 5.8 12.8 9.8 14.8 17 9.4 42.6-11.4 53.6-6.6 3.6-17.4 3.8-262 3.8-215-0.2-256-0.6-261-3zM481 727c-8.4-4-11.8-7-16.8-15-9.6-16-2.6-39.6 14.4-47.8 8.6-4.2 8.8-4.2 263.6-4.2 285.6 0 262-1.2 274.6 14.6 5.4 6.8 6.2 9.2 6.2 20.4s-0.8 13.6-6 20.2c-3.4 4-9.2 9-13 11-6.6 3.6-17.4 3.8-262 3.8-215-0.2-256-0.6-261-3zM478.4 513.8c-23.2-11.6-24.8-44.8-3-59.8l7.4-5 254-0.6c139.8-0.2 257.2 0 260.8 0.6 8.6 1.6 21.6 13.4 24.6 22.4 5.2 16.2-2.4 34.4-18.2 42.8-6.6 3.6-17.4 3.8-262 3.8h-255l-8.6-4.2zM690.4 301.8c-23.2-11.6-24.6-46.6-2.4-60.4l7-4.4 149.6-0.6c143.4-0.4 150-0.4 158.2 3.4 4.8 2 11.2 7.2 14.4 11.4 5 6.4 5.8 9.2 5.8 20s-0.8 13.4-6 20c-13 15.8-1.6 14.8-169 14.8-147.8 0-149 0-157.6-4.2zM550 90.4c-15.8-8.6-23.4-26.8-18.2-43 3-9 16-20.8 24.6-22.4 3.6-0.6 104.6-1 224.6-0.6 243.4 0.6 224.6-0.4 236.2 14.6 11 14.4 7.2 36.4-8.4 48.2l-7.4 5.8-222.2 0.6c-213.6 0.4-222.4 0.2-229.2-3.2z" />
<glyph unicode="&#xe963;" glyph-name="align-center" d="M768 554.667h-512c-23.552 0-42.667-19.115-42.667-42.667s19.115-42.667 42.667-42.667h512c23.552 0 42.667 19.115 42.667 42.667s-19.115 42.667-42.667 42.667zM896 725.334h-768c-23.552 0-42.667-19.115-42.667-42.667s19.115-42.667 42.667-42.667h768c23.552 0 42.667 19.115 42.667 42.667s-19.115 42.667-42.667 42.667zM896 384h-768c-23.552 0-42.667-19.115-42.667-42.667s19.115-42.667 42.667-42.667h768c23.552 0 42.667 19.115 42.667 42.667s-19.115 42.667-42.667 42.667zM768 213.334h-512c-23.552 0-42.667-19.115-42.667-42.667s19.115-42.667 42.667-42.667h512c23.552 0 42.667 19.115 42.667 42.667s-19.115 42.667-42.667 42.667z" />
<glyph unicode="&#xe964;" glyph-name="equalizer" d="M369 894.2c-18.4-4.8-34.6-18-43-35.2l-5-10v-802l5-10c6.2-12.8 18.4-24.8 31-31 8.2-3.8 13.2-4.8 27-4.8 15.6-0.2 18 0.4 29.6 6.6 14 7.6 20 13.8 28 29l5.4 10.2v802l-6.8 12.6c-11.4 21-28.8 32-52 33.4-7.2 0.4-15.8 0.2-19.2-0.8zM881 638.2c-18.4-4.8-34.6-18-43-35.2l-5-10v-546l5-10c6.2-12.8 18.4-24.8 31-31 13.8-6.6 39.8-6.8 53-0.4 14.2 6.8 22.6 15 30.2 28.8l6.8 12.6v546l-5 10c-6.4 12.8-18.4 24.8-30.8 30.6-10.6 5-32 7.4-42.2 4.6zM113 510.2c-18.4-4.8-34.6-18-43-35.2l-5-10v-418l5-10c6.2-12.8 18.4-24.8 31-31 8.2-3.8 13.2-4.8 27-4.8 15.6-0.2 18 0.4 29.6 6.6 14 7.6 20 13.8 28 29l5.4 10.2v418l-6.8 12.6c-11.4 21-28.8 32-52 33.4-7.2 0.4-15.8 0.2-19.2-0.8zM625 382.2c-18.4-4.8-34.6-18-43-35.2l-5-10v-290l5-10c6.2-12.8 18.4-24.8 31-31 13.8-6.6 39.8-6.8 53-0.4 14.2 6.8 22.6 15 30.2 28.8l6.8 12.6v290l-5 10c-6.4 12.8-18.4 24.8-30.8 30.6-10.6 5-32 7.4-42.2 4.6z" />
<glyph unicode="&#xe965;" glyph-name="time" d="M512-51.2c-282.77 0-512 229.23-512 512s229.23 512 512 512v0c282.77 0 512-229.23 512-512s-229.23-512-512-512v0zM512 51.2c226.216 0 409.6 183.384 409.6 409.6s-183.384 409.6-409.6 409.6v0c-226.216 0-409.6-183.384-409.6-409.6s183.384-409.6 409.6-409.6v0zM460.8 439.808v328.192h102.4v-286.208l202.24-202.24-72.192-72.192-232.448 232.448z" />
<glyph unicode="&#xe966;" glyph-name="chat-bubble" d="M473.6 915.8c-207.6-17.2-380.4-170.8-421.4-374.8-6.8-33.2-8.8-56.2-8.8-93 0-199.6 132.2-380.6 324.8-444.8 26.4-8.8 59.8-16.6 92.8-21.4 22.6-3.4 344.6-5 362.8-1.8 37 6.4 64.4 33.8 70.8 70.8 4.4 26-5.4 56.2-24.4 73.8l-9.8 9.2 13 15.6c54.4 65 91.6 150.2 103.8 237.6 4.2 29.2 4.6 89.6 1 117-18.8 141-92 259-209.2 337-23.2 15.4-67.4 37.6-95.6 47.8-61.8 22.8-133.4 32.6-199.8 27zM578 826.2c215.4-38 355.8-247.2 308.8-460-16.4-73.4-51.4-137-105.4-190.8-25.2-25-30.6-34.4-28.8-49.8 2-16.4 8-24 34.2-43.6l24-18h-156.6c-96.4 0-163.8 0.8-175.8 2.2-93.2 10-177.4 51.2-241.4 118-61 63.6-96.2 139.2-107.2 229.8-6 49 3.4 118.4 23 169.4 51 133.8 170.2 227.2 313.2 245.8 29 3.6 82.2 2.4 112-3zM305 510.2c-18.4-4.8-34.6-18-43-35.2-6.8-13.8-7-39.6-0.4-53 6.8-14.2 15-22.8 28.8-30.2 11.6-6.2 14-6.8 29.6-6.6 14.4 0 18.6 0.8 27.2 5.2 15 8 21.4 14 29 28 6.2 11.6 6.8 14 6.8 29.6s-0.6 18-6.8 29.6c-11.4 20.8-28.8 32-52 33.4-7.2 0.4-15.8 0.2-19.2-0.8zM497 510.2c-18.4-4.8-34.6-18-43-35.2-6.8-13.8-7-39.6-0.4-53 6.8-14.2 15-22.8 28.8-30.2 11.6-6.2 14-6.8 29.6-6.6 14.4 0 18.6 0.8 27.2 5.2 15 8 21.4 14 29 28 6.2 11.6 6.8 14 6.8 29.6s-0.6 18-6.8 29.6c-11.4 20.8-28.8 32-52 33.4-7.2 0.4-15.8 0.2-19.2-0.8zM689 510.2c-18.4-4.8-34.6-18-43-35.2-6.8-13.8-7-39.6-0.4-53 6.8-14.2 15-22.8 28.8-30.2 11.6-6.2 14-6.8 29.6-6.6 14.4 0 18.6 0.8 27.2 5.2 15 8 21.4 14 29 28 6.2 11.6 6.8 14 6.8 29.6s-0.6 18-6.8 29.6c-11.4 20.8-28.8 32-52 33.4-7.2 0.4-15.8 0.2-19.2-0.8z" />
<glyph unicode="&#xe967;" glyph-name="refresh1" d="M754 668.667l100 100v-300h-300l138 138q-76 76-180 76-106 0-181-75t-75-181 75-181 181-75q74 0 145 50t97 120h88q-28-112-120-184t-210-72q-140 0-240 100t-100 242 100 242 240 100q60 0 131-29t111-71z" />
<glyph unicode="&#xe968;" glyph-name="classificar-em-ordem-decrescente-_1" d="M783 915.8c-6.4-1.8-135-128.4-140.2-138.2-5.6-10.6-1.4-23.2 9.4-28.8 12.4-6.4 15.2-4.4 66.8 47.2l48 48 2-768.4 6.6-5.8c10.2-9.2 26.6-6.6 32 5.2 1.8 4 2.4 95.4 2.4 387.6v382.4l47.6-47.4c26-26 49.6-48.2 52.2-49.6 12.2-6.2 28.2 5.4 28.2 20.6 0 8.2-0.6 8.8-68.4 76.8-46.8 46.8-70.6 69.2-74.6 70.2-3.2 1-8.6 1-12 0.2zM443 660.6c-6-1.4-14.6-10.4-16-16.8-1.8-8 4-18.8 12-22.6 5.6-2.8 18.6-3.2 93.8-3.2 96 0 98.2 0.2 104 11.8 4.2 8 4 13.8-0.8 21.6-2.6 4.2-6.2 7-11.4 8.4-7.6 2.2-173.2 2.8-181.6 0.8zM356.6 531.8c-14.8-4.4-19.4-22.2-8.8-34.2l5.8-6.6 131.8-0.6c91.8-0.4 133.8 0 139.2 1.6 8.4 2.4 15.4 11.6 15.4 20 0 8.6-7 17.6-15.4 19.8-9.6 2.8-258.8 2.6-268 0zM270.4 403.8c-7.2-2.2-14.4-11.8-14.4-19.4 0-7.8 5.8-16.6 13-19.6 10.2-4.2 347.8-4.2 358 0 7.2 3 13 11.8 13 19.6 0 8.2-7.2 17.2-15.4 19.4-9.8 2.8-344.6 2.6-354.2 0zM187 276.6c-6-1.4-14.6-10.4-16-16.8-1.8-8 4-18.8 12-22.6 5.8-2.8 30-3.2 221.8-3.2 235.8 0 225.8-0.6 232 11.8 4.2 8 4 13.8-0.8 21.6-2.6 4.2-6.2 7-11.4 8.4-7.6 2.2-429 2.8-437.6 0.8zM100.6 147.8c-14.8-4.4-19.4-22.4-8.8-34.2l5.8-6.6 259.8-0.6c184.6-0.4 261.8 0 267.2 1.6 8.4 2.4 15.4 11.6 15.4 20 0 8.6-7 17.6-15.4 19.8-9.8 2.8-514.6 2.6-524 0z" />
<glyph unicode="&#xe969;" glyph-name="download-_1" d="M507 897c-1-0.4-4.4-1.2-7.4-1.8-7.8-1.8-19.6-12.8-23.8-22.2-3.6-7.6-3.8-21-3.8-274v-266l-64.4 64.4c-67.2 66.8-69.4 68.6-85.6 68.6-7.8 0-25-9-29.4-15.2-10-14.4-11-28-3-42.4 6-11 192-203 203.2-209.6 9-5.4 28-5.2 37.2 0.6s199.8 200.6 204.6 209.2c2.8 4.8 3.4 9.6 3 19.8-0.6 11.4-1.6 14.4-6.8 21-9.2 11.2-17.8 15.6-30.8 15.4-6.2 0-13.6-1.4-17-3.2-3.2-1.8-34-31.4-68.4-65.8l-62.6-62.8v265.6c0 235.4-0.4 266.4-3.2 273-3.4 8.4-11.6 17.6-18.8 21.4-5.4 2.6-19.6 5.2-23 4zM91.8 327.2c-13.2-4.6-21.2-12.6-25.4-25-3.2-9.2-3.4-205.4-0.2-220.6 8-38.4 41.2-71.6 79.4-79.4 7.4-1.6 117.2-2.2 367-2.2 392 0 369.4-0.6 393.6 12.2 24.4 13 46 42 51.6 69.4 1.4 6.8 2.2 46.6 2.2 113 0 95.4-0.4 103-3.8 110.4-7.2 15.6-19 23-36.4 23-13 0-24.4-6-31.2-16.4l-5.6-8.4-1-104.2c-1-96.6-1.2-104.6-4.6-109.8-7.8-11.8 14-11.2-365.8-11.2-327.8 0-349 0.2-355.6 3.6-14.2 7-14 5.4-14 118 0 96.4-0.2 100.8-4 108.4-4.8 9.4-14.2 16.8-25 19.8-10 2.8-12.2 2.6-21.2-0.6z" />
<glyph unicode="&#xe96a;" glyph-name="upload3" d="M498 895.8c-7.8-2.4-6.2-0.8-127.6-125.2-80-81.8-86.2-89.4-86.4-103.8 0-7.8 3.4-18.2 8.6-25.6 4.4-6.2 21.6-15.2 29.4-15.2 16.2 0 18.4 1.8 85.6 68.6l64.4 64.4v-265.6c0-290.8-0.8-273.2 11.6-286 8.2-8.6 16.2-12 28.4-12s20.2 3.4 28.4 12c12.4 12.8 11.6-4.8 11.6 286v265.6l62.6-62.8c34.6-34.4 65.4-64.2 68.6-65.8 3.2-1.8 10.8-3.2 16.8-3.2 13-0.2 21.6 4.2 30.8 15.4 5.2 6.6 6.2 9.6 6.8 21 0.4 10.2-0.2 15-3 20-4.4 8-195.2 203.2-204 208.6-7.6 4.8-23 6.4-32.6 3.6zM91.8 327.2c-13.2-4.6-21.2-12.6-25.4-25-3.2-9.2-3.4-205.4-0.2-220.6 8-38.4 41.2-71.6 79.4-79.4 7.4-1.6 117.2-2.2 367-2.2 392 0 369.4-0.6 393.6 12.2 24.4 13 46 42 51.6 69.4 1.4 6.8 2.2 46.6 2.2 113 0 95.4-0.4 103-3.8 110.4-7.2 15.6-19 23-36.4 23-13 0-24.4-6-31.2-16.4l-5.6-8.4-1-104.2c-1-96.6-1.2-104.6-4.6-109.8-7.8-11.8 14-11.2-365.8-11.2-327.8 0-349 0.2-355.6 3.6-14.2 7-14 5.4-14 118 0 96.4-0.2 100.8-4 108.4-4.8 9.4-14.2 16.8-25 19.8-10 2.8-12.2 2.6-21.2-0.6z" />
<glyph unicode="&#xe96b;" glyph-name="upload1647" d="M499 852.2c-5.4-2.6-39-35-102.4-98.4-82.8-83.2-94.4-95.8-95.6-102.2-2-10.8 0.4-20.4 6.4-27.8 10-11.8 24.8-14.8 38.2-8 4 2.2 35.8 32.4 70.4 67l63 63.2 1-242.8c1-241.4 1-243 5.2-248.4 7.8-10.6 14.2-13.8 26.8-13.8s19 3.2 26.8 13.8c4.2 5.4 4.2 6.6 4.8 248.8l0.4 243.2 67.6-67.2c45.2-45.2 69.2-67.8 73-68.8 8.8-2 22.4 0.2 29 4.8 11.2 8.2 16 27.8 9.6 40-4.4 8.4-193.4 196-199.8 198.2-8.2 3.2-15.2 2.6-24.4-1.6zM90.8 339.2c-7.6-3.4-14.2-11.4-17-21-1.4-5-1.8-29.6-1.4-75.2 0.8-67.2 1-68.2 6.4-86 13.8-45.4 43-80 84.2-100 35.8-17.4 5-16 349-16s313.2-1.4 349 16c42.2 20.4 73 58.2 85.4 104 3.8 14.6 4.4 22 5 85 0.8 68.8 0.8 69-3.8 77.8-6 11.6-13 16.6-25.2 17.8-12.6 1.2-24-4.8-30.2-15.6-4-7.2-4.2-10.2-4.2-69.2 0-69.2-1.4-80.6-12.4-101.4-8.2-15.6-25.4-32.8-39.6-39.8-24.6-12.2-7.8-11.6-324-11.6-316 0-298.6-0.6-323.6 11.6-15.2 7.2-32.4 24.6-40.2 40.2-10.8 21.2-12.2 32.2-12.2 101 0 59-0.2 62-4.2 69.2-7.8 13.8-26 19.6-41 13.2z" />
<glyph unicode="&#xe96c;" glyph-name="download3" d="M499 853.2c-7.4-3.4-14-10.4-16.8-17.8-1.6-4-2.2-80.6-2.2-246v-240.4l-66.4 66.4c-36.6 36.6-69.2 67.4-72.2 68.4-14.6 5.6-31.6-0.4-39.2-13.8-4.6-8.2-5.6-21.6-2-28.6 3.2-6.2 191.6-195 198.2-198.6 7-3.6 20.2-3.6 27.2 0 3 1.6 48.4 46 100.8 98.6 103 103.2 100 99.8 96.8 117.6-1.8 9.2-12.4 20-22.8 23-17.4 5.4-18.4 4.6-90.8-67.6l-65.6-65.2-0.4 243.2c-0.6 242.2-0.6 243.4-4.8 248.8-2.2 3-6.4 7.4-9.2 9.4-6.8 5-22.6 6.4-30.6 2.6zM90.8 339.2c-7.6-3.4-14.2-11.4-17-21-1.4-5-1.8-29.6-1.4-75.2 0.8-67.2 1-68.2 6.4-86 13.8-45.4 43-80 84.2-100 35.8-17.4 5-16 349-16s313.2-1.4 349 16c42.2 20.4 73 58.2 85.4 104 3.8 14.6 4.4 22 5 85 0.8 68.8 0.8 69-3.8 77.8-6 11.6-13 16.6-25.2 17.8-12.6 1.2-24-4.8-30.2-15.6-4-7.2-4.2-10.2-4.2-69.2 0-69.2-1.4-80.6-12.4-101.4-8.2-15.6-25.4-32.8-39.6-39.8-24.6-12.2-7.8-11.6-324-11.6-316 0-298.6-0.6-323.6 11.6-15.2 7.2-32.4 24.6-40.2 40.2-10.8 21.2-12.2 32.2-12.2 101 0 59-0.2 62-4.2 69.2-7.8 13.8-26 19.6-41 13.2z" />
<glyph unicode="&#xe96d;" glyph-name="alert" d="M467.552 356.608c-11.072-11.264-16.64-25.024-16.64-41.344 0-17.632 6.304-32.448 18.88-44.448 11.616-11.072 25.568-16.608 41.888-16.608 16.672 0 31.072 6.016 43.072 18.112s17.984 26.496 17.984 43.2c0 16.128-5.824 30.176-17.44 42.176-11.616 12.192-25.632 18.272-41.952 18.272-18.144 0.032-33.408-6.432-45.792-19.36v0zM460.512 614.784c-9.568-14.432-14.304-32.352-14.304-53.728 0-17.44 2.944-36.672 8.832-57.664s13.92-40.672 24.032-59.072c13.696-24.928 24.32-37.408 31.808-37.408 7.68 0 17.824 9.76 30.368 29.248 11.072 17.248 19.904 36.864 26.56 58.912s9.984 42.624 9.984 61.76c0 28.864-7.808 51.2-23.36 66.944-11.616 12-25.76 18.016-42.432 18.016-22.496 0-39.68-9.024-51.488-27.008v0z" />
<glyph unicode="&#xe96e;" glyph-name="arrow-up" d="M243.499 396.502l225.835 225.835v-494.336c0-23.552 19.115-42.667 42.667-42.667s42.667 19.115 42.667 42.667v494.336l225.835-225.835c16.683-16.683 43.691-16.683 60.331 0s16.683 43.691 0 60.331l-298.667 298.667c-3.925 3.925-8.619 7.083-13.824 9.259s-10.795 3.243-16.341 3.243c-10.923 0-21.845-4.181-30.165-12.501l-298.667-298.667c-16.683-16.683-16.683-43.691 0-60.331s43.691-16.683 60.331 0z" />
<glyph unicode="&#xe96f;" glyph-name="chevron-down" d="M225.835 524.502l256-256c16.683-16.683 43.691-16.683 60.331 0l256 256c16.683 16.683 16.683 43.691 0 60.331s-43.691 16.683-60.331 0l-225.835-225.835-225.835 225.835c-16.683 16.683-43.691 16.683-60.331 0s-16.683-43.691 0-60.331z" />
<glyph unicode="&#xe970;" glyph-name="chevron-up" d="M798.165 328.832l-256 256c-16.683 16.683-43.691 16.683-60.331 0l-256-256c-16.683-16.683-16.683-43.691 0-60.331s43.691-16.683 60.331 0l225.835 225.835 225.835-225.835c16.683-16.683 43.691-16.683 60.331 0s16.683 43.691 0 60.331z" />
<glyph unicode="&#xe971;" glyph-name="chevron-right1" d="M326.625 860.75c3.268 0.085 3.268 0.085 6.602 0.172 15.833-2.155 25.998-13.284 36.767-24.154 1.551-1.542 3.103-3.084 4.701-4.673 5.181-5.157 10.34-10.335 15.499-15.513 3.715-3.707 7.432-7.413 11.149-11.117 9.038-9.011 18.060-18.039 27.076-27.072 7.328-7.342 14.663-14.678 22.001-22.010 1.045-1.045 2.091-2.089 3.168-3.165 2.124-2.122 4.248-4.244 6.372-6.366 19.902-19.885 39.786-39.788 59.663-59.698 17.051-17.077 34.117-34.139 51.195-51.189 19.843-19.811 39.676-39.631 59.493-59.467 2.114-2.115 4.227-4.231 6.341-6.346 1.040-1.041 2.080-2.082 3.151-3.154 7.324-7.329 14.654-14.651 21.987-21.97 9.87-9.852 19.725-19.719 29.568-29.598 3.617-3.625 7.24-7.245 10.868-10.86 4.946-4.93 9.874-9.878 14.797-14.831 1.444-1.43 2.888-2.861 4.375-4.334 10.857-10.986 17.448-20.182 17.603-36.155 0.062-2.119 0.124-4.238 0.188-6.422-2.825-16.242-15.269-27.78-26.57-38.986-2.301-2.317-2.301-2.317-4.649-4.681-5.118-5.147-10.258-10.272-15.397-15.397-3.684-3.696-7.367-7.393-11.049-11.091-8.949-8.983-17.914-17.95-26.885-26.91-7.292-7.284-14.578-14.573-21.861-21.867-1.038-1.040-2.076-2.079-3.146-3.15-2.109-2.112-4.218-4.224-6.328-6.337-19.756-19.783-39.531-39.547-59.312-59.305-18.089-18.069-36.156-36.162-54.211-54.265-18.556-18.605-37.126-37.194-55.713-55.768-10.429-10.422-20.851-20.849-31.259-31.291-9.782-9.814-19.584-19.607-29.401-29.386-3.6-3.593-7.194-7.193-10.78-10.8-4.894-4.92-9.812-9.815-14.737-14.705-1.415-1.435-2.831-2.869-4.289-4.347-10.312-10.16-20.235-17.391-35.352-17.416-12.474 0.474-23.174 3.575-31.969 12.758-7.508 9.707-10.605 17.099-10.906 29.492-0.075 1.988-0.15 3.975-0.227 6.023 2.052 15.904 11.644 26.555 22.721 37.433 1.395 1.402 2.79 2.804 4.228 4.249 4.655 4.668 9.338 9.307 14.021 13.947 3.353 3.35 6.703 6.702 10.053 10.056 9.081 9.083 18.186 18.141 27.295 27.195 8.559 8.51 17.095 17.042 25.634 25.573 16.906 16.889 33.831 33.76 50.766 50.62 16.446 16.372 32.883 32.753 49.309 49.145 1.52 1.517 1.52 1.517 3.071 3.065 5.085 5.074 10.169 10.148 15.253 15.223 42.141 42.058 84.311 84.087 126.5 126.097-2.592 5.706-5.319 9.815-9.754 14.23-1.182 1.186-2.363 2.372-3.581 3.594-1.949 1.925-1.949 1.925-3.938 3.89-1.379 1.379-2.759 2.757-4.18 4.178-4.635 4.628-9.284 9.241-13.934 13.854-3.322 3.311-6.643 6.623-9.963 9.935-7.157 7.137-14.32 14.268-21.487 21.395-10.372 10.314-20.731 20.641-31.086 30.973-16.813 16.775-33.633 33.544-50.459 50.306-1.007 1.003-2.014 2.006-3.051 3.040-11.233 11.19-22.468 22.378-33.704 33.565-4.074 4.056-8.147 8.111-12.221 12.167-1.005 1.001-2.010 2.001-3.046 3.032-16.765 16.691-33.517 33.394-50.261 50.106-11.245 11.223-22.505 22.431-33.774 33.629-7.007 6.968-14.001 13.949-20.991 20.933-3.246 3.238-6.498 6.471-9.755 9.699-4.443 4.404-8.868 8.827-13.288 13.255-1.295 1.275-2.59 2.549-3.924 3.863-10.473 10.556-16.454 19.793-16.602 35.108 0.294 12.273 2.767 20.139 11 29.25 9.791 9.074 17.249 12.593 30.625 12.75z" />
<glyph unicode="&#xe972;" glyph-name="chevron-down1" d="M166.97 669.053c7.803-4.736 13.912-10.585 20.267-17.087 1.397-1.389 2.795-2.778 4.234-4.208 4.633-4.617 9.229-9.268 13.827-13.92 3.331-3.334 6.664-6.665 9.999-9.994 9.017-9.014 18.003-18.059 26.983-27.109 8.448-8.505 16.92-16.986 25.391-25.468 16.769-16.791 33.515-33.603 50.247-50.43 16.245-16.337 32.501-32.664 48.771-48.977 1.004-1.007 2.009-2.014 3.043-3.051 5.039-5.052 10.078-10.104 15.118-15.156 41.749-41.852 83.461-83.741 125.149-125.653 5.689 2.587 9.799 5.302 14.204 9.723 1.18 1.175 2.36 2.349 3.576 3.56 1.277 1.292 2.554 2.583 3.87 3.914 1.372 1.371 2.744 2.743 4.157 4.155 4.605 4.608 9.195 9.229 13.786 13.851 3.294 3.302 6.59 6.603 9.886 9.903 7.101 7.114 14.197 14.234 21.287 21.359 10.261 10.31 20.533 20.608 30.81 30.902 16.685 16.713 33.362 33.433 50.033 50.16 0.998 1.001 1.995 2.002 3.023 3.033 8.094 8.121 16.188 16.243 24.282 24.364 7.072 7.096 14.144 14.192 21.217 21.288 1.494 1.499 1.494 1.499 3.018 3.028 16.607 16.661 33.221 33.315 49.841 49.963 11.162 11.182 22.315 22.374 33.46 33.574 6.932 6.962 13.872 13.916 20.815 20.867 3.221 3.229 6.439 6.461 9.653 9.697 4.383 4.412 8.779 8.812 13.178 13.209 1.909 1.931 1.909 1.931 3.857 3.9 11.446 11.393 21.156 17.679 37.548 18.175 12.267-0.18 20.964-3.544 30.016-11.852 9.428-10.27 13.563-20.324 13.1-34.532-2.37-16.341-12.496-27.563-23.847-38.716-1.542-1.555-3.084-3.109-4.673-4.711-5.147-5.178-10.33-10.319-15.513-15.462-3.708-3.715-7.414-7.432-11.117-11.151-9.003-9.032-18.033-18.038-27.072-27.034-10.531-10.483-21.037-20.992-31.541-31.502-18.744-18.752-37.513-37.479-56.295-56.193-18.217-18.151-36.414-36.32-54.592-54.51-19.81-19.824-39.63-39.639-59.467-59.436-1.574-1.571-1.574-1.571-3.179-3.173-2.107-2.103-4.214-4.206-6.321-6.308-7.328-7.314-14.65-14.635-21.97-21.957-9.851-9.854-19.719-19.692-29.598-29.519-3.625-3.611-7.245-7.227-10.86-10.848-4.93-4.937-9.878-9.856-14.831-14.77-1.43-1.441-2.861-2.882-4.334-4.367-11.623-11.465-21.889-17.558-38.374-18.693-22.582 0.491-37.993 20.772-52.81 35.607-2.256 2.247-2.256 2.247-4.558 4.54-4.999 4.982-9.991 9.971-14.983 14.959-3.598 3.589-7.197 7.177-10.795 10.765-9.744 9.718-19.481 19.442-29.216 29.168-6.083 6.077-12.168 12.153-18.252 18.229-16.864 16.84-33.726 33.681-50.582 50.53-1.076 1.076-2.152 2.151-3.261 3.26-1.618 1.617-1.618 1.617-3.268 3.267-2.185 2.184-4.371 4.369-6.556 6.553-1.084 1.084-2.168 2.167-3.285 3.283-17.592 17.584-35.198 35.155-52.81 52.72-18.103 18.056-36.195 36.123-54.276 54.201-10.144 10.142-20.292 20.279-30.453 30.403-9.546 9.512-19.077 19.040-28.598 28.578-3.498 3.499-7.001 6.994-10.51 10.483-4.784 4.759-9.55 9.536-14.311 14.318-1.396 1.38-2.791 2.759-4.229 4.181-11.356 11.473-17.25 21.751-18.396 38.024 0.3 12.904 6.148 22.793 14.805 32.086 15.943 14.213 34.985 11.065 52.283 2.006z" />
<glyph unicode="&#xe973;" glyph-name="chevron-up1" d="M511.875 676.875c1.544 0.039 3.089 0.077 4.68 0.117 16.121-2.937 26.656-13.042 37.755-24.259 2.342-2.319 2.342-2.319 4.731-4.685 5.207-5.166 10.385-10.359 15.563-15.554 3.735-3.717 7.471-7.433 11.209-11.147 9.084-9.033 18.146-18.087 27.199-27.15 7.361-7.368 14.728-14.728 22.101-22.084 1.576-1.573 1.576-1.573 3.184-3.177 2.135-2.13 4.27-4.26 6.404-6.39 20-19.957 39.974-39.939 59.94-59.93 18.255-18.276 36.543-36.519 54.847-54.746 18.811-18.733 37.6-37.489 56.364-56.269 10.529-10.536 21.066-21.064 31.627-31.568 8.988-8.941 17.955-17.902 26.896-26.891 4.559-4.583 9.13-9.152 13.722-13.702 4.982-4.941 9.926-9.917 14.862-14.904 1.45-1.421 2.9-2.841 4.394-4.305 10.381-10.607 15.808-20.904 17.146-35.802-1.519-13.838-5.474-24.153-16.016-33.57-9.882-7.002-20.393-9.945-32.484-8.859-14.425 3.205-23.046 9.327-33.224 19.781-2.13 2.115-2.13 2.115-4.303 4.272-4.727 4.707-9.41 9.456-14.094 14.206-3.389 3.393-6.781 6.783-10.175 10.17-8.238 8.235-16.448 16.497-24.646 24.771-9.545 9.631-19.124 19.228-28.706 28.823-17.084 17.111-34.142 34.248-51.182 51.402-16.548 16.658-33.108 33.303-49.686 49.932-1.023 1.026-2.046 2.052-3.099 3.109-5.131 5.147-10.263 10.294-15.395 15.441-42.535 42.659-85.026 85.363-127.49 128.093-5.721-2.597-9.826-5.332-14.244-9.785-1.784-1.783-1.784-1.783-3.604-3.602-1.287-1.307-2.575-2.614-3.901-3.961-1.383-1.388-2.765-2.775-4.19-4.205-4.641-4.663-9.268-9.34-13.895-14.017-3.321-3.342-6.642-6.682-9.965-10.022-7.16-7.2-14.314-14.405-21.464-21.615-11.308-11.4-22.635-22.78-33.966-34.157-3.878-3.894-7.756-7.789-11.634-11.683-0.969-0.973-1.938-1.947-2.937-2.949-11.030-11.077-22.055-22.158-33.079-33.24-1.008-1.013-2.015-2.026-3.053-3.070-16.32-16.409-32.625-32.834-48.927-49.262-16.745-16.875-33.514-33.727-50.302-50.559-9.422-9.448-18.831-18.908-28.214-28.394-8.828-8.925-17.682-17.821-26.559-26.697-3.251-3.26-6.491-6.531-9.72-9.813-4.415-4.484-8.866-8.929-13.327-13.367-1.898-1.954-1.898-1.954-3.833-3.948-10.116-9.937-20.535-14.758-34.685-16.225-14.465 1.431-25.608 6.765-35.328 17.773-6.024 9.144-7.996 19.976-7.172 30.797 3.191 15.144 10.256 23.973 21.13 34.626 1.555 1.571 3.11 3.142 4.713 4.761 5.2 5.238 10.441 10.432 15.683 15.627 3.744 3.754 7.486 7.51 11.225 11.269 9.095 9.133 18.222 18.233 27.36 27.323 10.647 10.592 21.262 21.214 31.877 31.838 18.943 18.956 37.916 37.882 56.904 56.792 18.416 18.34 36.807 36.703 55.174 55.092 20.015 20.039 40.041 40.065 60.091 60.069 2.139 2.134 4.277 4.267 6.416 6.401 1.052 1.050 2.104 2.099 3.188 3.181 7.406 7.391 14.804 14.79 22.198 22.192 9.013 9.021 18.040 18.028 27.087 27.016 4.613 4.584 9.218 9.177 13.81 13.783 4.982 4.995 9.988 9.964 15 14.928 1.441 1.457 2.883 2.913 4.368 4.414 10.442 10.262 20.365 17.538 35.652 17.564z" />
<glyph unicode="&#xe974;" glyph-name="chevron-left1" d="M714.961 858.102c10.53-6.263 18.331-14.718 23.039-26.102 0.742-5.906 0.742-5.906 0.875-12.5 0.080-2.155 0.16-4.311 0.242-6.531-2.515-15.69-14.214-26.936-25.152-37.725-1.389-1.394-2.778-2.788-4.208-4.224-4.626-4.636-9.273-9.25-13.92-13.864-3.333-3.331-6.664-6.663-9.994-9.997-9.023-9.025-18.064-18.031-27.109-27.033-8.498-8.465-16.983-16.943-25.468-25.422-16.798-16.785-33.61-33.557-50.43-50.32-16.333-16.277-32.659-32.561-48.977-48.854-1.007-1.005-2.014-2.011-3.051-3.047-5.052-5.044-10.104-10.088-15.156-15.133-41.865-41.803-83.752-83.584-125.653-125.351 2.585-5.686 5.295-9.79 9.717-14.187 1.173-1.176 2.347-2.353 3.556-3.565 1.935-1.91 1.935-1.91 3.91-3.858 2.055-2.051 2.055-2.051 4.151-4.144 4.603-4.591 9.22-9.167 13.837-13.744 3.299-3.285 6.597-6.57 9.894-9.857 7.108-7.082 14.221-14.157 21.34-21.228 10.304-10.237 20.594-20.488 30.88-30.744 16.705-16.657 33.416-33.308 50.133-49.952 1.501-1.494 1.501-1.494 3.032-3.019 14.19-14.128 28.386-28.249 42.585-42.369 0.999-0.994 1.999-1.987 3.028-3.011 1.497-1.489 1.497-1.489 3.024-3.008 16.658-16.565 33.3-33.146 49.929-49.74 11.164-11.138 22.346-22.258 33.542-33.365 6.966-6.919 13.916-13.855 20.861-20.796 3.221-3.213 6.449-6.418 9.685-9.617 4.421-4.372 8.817-8.769 13.207-13.172 1.922-1.883 1.922-1.883 3.883-3.804 9.49-9.598 16.574-19.56 18.871-33.072-0.159-14.634-1.768-25.738-11.844-36.805-10.837-9.839-21.687-11.358-35.703-11.867-16.138 2.697-26.709 12.964-37.75 24.154-1.553 1.542-3.106 3.084-4.706 4.673-5.179 5.152-10.33 10.332-15.48 15.513-3.715 3.707-7.432 7.413-11.15 11.117-9.035 9.007-18.049 18.036-27.055 27.072-10.494 10.527-21.007 21.035-31.522 31.541-18.76 18.748-37.5 37.517-56.229 56.295-18.167 18.214-36.35 36.412-54.551 54.592-19.833 19.81-39.657 39.63-59.464 59.467-2.112 2.115-4.225 4.231-6.337 6.346-1.559 1.561-1.559 1.561-3.149 3.154-7.319 7.328-14.644 14.65-21.972 21.97-9.862 9.851-19.708 19.719-29.544 29.598-3.614 3.625-7.233 7.245-10.858 10.86-4.942 4.93-9.865 9.878-14.784 14.831-2.164 2.146-2.164 2.146-4.371 4.334-10.849 10.988-17.439 20.186-17.593 36.155-0.062 2.119-0.124 4.238-0.188 6.422 2.826 16.248 15.273 27.782 26.584 38.986 1.535 1.545 3.071 3.090 4.653 4.681 5.123 5.147 10.267 10.272 15.411 15.397 3.688 3.696 7.374 7.393 11.059 11.091 8.956 8.983 17.929 17.95 26.907 26.91 7.297 7.284 14.588 14.573 21.875 21.867 1.039 1.040 2.077 2.079 3.148 3.15 2.11 2.112 4.221 4.224 6.331 6.337 19.766 19.783 39.55 39.547 59.34 59.305 16.974 16.947 33.932 33.91 50.879 50.884 19.696 19.728 39.401 39.446 59.122 59.148 2.103 2.101 4.206 4.202 6.309 6.304 1.035 1.034 2.069 2.067 3.135 3.133 7.285 7.28 14.562 14.566 21.837 21.855 9.791 9.81 19.598 19.603 29.415 29.386 3.603 3.595 7.2 7.195 10.792 10.8 4.899 4.916 9.817 9.812 14.739 14.705 1.421 1.435 2.842 2.869 4.307 4.347 15.245 15.065 32.914 22.828 54.304 14.643z" />
<glyph unicode="&#xe975;" glyph-name="content_copy" d="M810 42.667v598h-468v-598h468zM810 724.667q34 0 60-25t26-59v-598q0-34-26-60t-60-26h-468q-34 0-60 26t-26 60v598q0 34 26 59t60 25h468zM682 896.667v-86h-512v-598h-84v598q0 34 25 60t59 26h512z" />
<glyph unicode="&#xe976;" glyph-name="user1" d="M896 42.667v85.333c0 58.88-23.936 112.299-62.464 150.869s-91.989 62.464-150.869 62.464h-341.333c-58.88 0-112.299-23.936-150.869-62.464s-62.464-91.989-62.464-150.869v-85.333c0-23.552 19.115-42.667 42.667-42.667s42.667 19.115 42.667 42.667v85.333c0 35.371 14.293 67.285 37.504 90.496s55.125 37.504 90.496 37.504h341.333c35.371 0 67.285-14.293 90.496-37.504s37.504-55.125 37.504-90.496v-85.333c0-23.552 19.115-42.667 42.667-42.667s42.667 19.115 42.667 42.667zM725.333 640c0 58.88-23.936 112.299-62.464 150.869s-91.989 62.464-150.869 62.464-112.299-23.936-150.869-62.464-62.464-91.989-62.464-150.869 23.936-112.299 62.464-150.869 91.989-62.464 150.869-62.464 112.299 23.936 150.869 62.464 62.464 91.989 62.464 150.869zM640 640c0-35.371-14.293-67.285-37.504-90.496s-55.125-37.504-90.496-37.504-67.285 14.293-90.496 37.504-37.504 55.125-37.504 90.496 14.293 67.285 37.504 90.496 55.125 37.504 90.496 37.504 67.285-14.293 90.496-37.504 37.504-55.125 37.504-90.496z" />
<glyph unicode="&#xe977;" glyph-name="broken-heart" d="M221.8 870.2c-69.4-13.4-119.4-39-159.6-81.2-101.6-107.6-76.8-296.8 63.4-481.8 72.4-95.6 180.4-195.8 293-272 17.2-11.6 20.6-13.2 29-13.2 12.4 0 21.6 5.8 26.4 16.6 3.8 8 4 14.6 4 142 0 110-0.4 134.6-2.8 140-1.6 3.6-25 28.4-52 55.4s-49.2 49.8-49.2 51c0 1.2 22.2 24 49.2 51s50.4 51.8 52 55.4c2.2 5.2 2.8 27 2.8 118.4 0 98-0.4 113.2-3.2 120.2-2.4 5.8-8.4 12.2-23.2 24.4-45.4 37.6-92.6 61.8-142.6 72.8-22.4 4.8-64.4 5.4-87.2 1zM305 808.4c36.8-10 69.6-26.8 101-52l12-9.4v-190l-57.8-58c-50.6-50.8-58-59-59.4-65.6-2.8-15.8-0.8-18.6 60.2-79.4l57-57v-92.4c0-51-0.6-92.6-1.4-92.6-1.8 0-28.2 20.2-55.6 42.8-189 155.4-294.8 314.8-300.4 452.2-1.2 30.4 2 53.8 11.4 79 23 63.2 76.4 110 142 124.2 22.4 5 69.8 4 91-1.8zM725.8 871.2c-54.2-9.6-104-33.8-153.4-74.8-14.8-12.2-20.8-18.6-23.2-24.4-2.8-7-3.2-19-3.2-82.6 0-68.4 0.4-75 3.8-82.4 2-4.4 13.8-17.8 26-30l22.2-22-56.8-57c-60.4-60.6-61.2-61.6-58.2-77.6 1-6 6.8-13 32.2-38.4l30.8-31 0.4-155 0.6-155 4.6-6.6c6.2-8.4 14-12.4 25.2-12.4 8 0 11.6 1.8 28.6 13.2 26.8 18 82.8 60.4 109.6 82.8 201.8 168.4 315.8 359.4 308.4 517-5.6 121.2-81.8 205.4-211 233.2-24.6 5.2-65.6 6.6-86.6 3zM819 808.2c37-9.8 77-35.8 100.8-65.2 31.8-39.6 45.8-83 43.6-136-5.4-131.8-102-282.4-276.8-432.6-27.2-23.4-76.8-62.4-79-62.4-1 0-1.6 57.6-1.6 127.8 0 84.4-0.8 129.8-2 133.6-1.2 3-13 16.4-26 29.6l-24 24 55.2 55c30.2 30.2 56.4 57.4 58 60.4 3.4 6.4 3.6 17.2 0.6 25-1.2 3-15.6 19.2-32 35.6l-29.8 30.2v113.8l12 9.4c32.4 26 68.4 44.2 103 52.2 21.8 5 22.2 5.2 53 4.4 21.8-0.4 33-1.6 45-4.8z" />
<glyph unicode="&#xe978;" glyph-name="heart4" d="M203.8 892.8c-32.8-5.8-64.2-18.4-92.8-36.8-21.8-14.2-56.8-50-70.8-72.6-67.8-109.8-49-261 51.6-413 80.4-121.4 208.4-239.6 385.2-355 23.8-15.6 24-15.8 35.4-15 10.6 0.8 13.4 2.4 52 28 209.8 139.8 368 309.8 427.6 459.6 45.8 114.8 42 214.2-11.2 294.4-38.8 58.8-100.8 99-170.6 110.6-32.2 5.4-77.8 3.4-108.2-4.6-47.2-12.6-86.2-33-127.6-66.8-16-13.2-44.4-41.2-55.8-55l-7-8.6-27.4 27.6c-60.2 61-123.2 96-193.2 107.4-22.2 3.6-66.8 3.6-87.2-0.2zM302.4 829.2c64.4-17.2 125.8-61.8 172.6-125.8 15.2-20.8 24-27.4 36.2-27.4 11.6 0 19 5.6 34.8 27.4 20.4 27.6 64 70.4 89 87 49.4 33 97.4 47.6 148.8 45 28.2-1.4 49-6.6 73.2-18.4 52.2-25.4 88.2-74.4 100.2-136.2 4.2-21.4 4.6-64.6 1-87.8-20.6-132.6-120.8-274.8-293-415.8-43.6-35.6-148.2-111.2-154.2-111.2-8 0-126.2 87-180 132.2-38.6 32.6-101.6 94.4-128.4 126-75 88.2-121.2 173.8-136.6 253-25 129 33.8 232.6 145.2 255.8 22 4.6 66.8 2.8 91.2-3.8z" />
<glyph unicode="&#xe979;" glyph-name="heart-escuro" d="M203.8 892.8c-32.8-5.8-64.2-18.4-92.8-36.8-21.8-14.2-56.8-50-70.8-72.6-67.8-109.8-49-261 51.6-413 80.4-121.4 208.4-239.6 385.2-355 23.8-15.6 24-15.8 35.4-15 10.6 0.8 13.4 2.4 52 28 209.8 139.8 368 309.8 427.6 459.6 45.8 114.8 42 214.2-11.2 294.4-38.8 58.8-100.8 99-170.6 110.6-32.2 5.4-77.8 3.4-108.2-4.6-47.2-12.6-86.2-33-127.6-66.8-16-13.2-44.4-41.2-55.8-55l-7-8.6-27.4 27.6c-60.2 61-123.2 96-193.2 107.4-22.2 3.6-66.8 3.6-87.2-0.2z" />
<glyph unicode="&#xe97a;" glyph-name="download1709" d="M496 857.8c-6.4-2.6-17.4-13.2-21.6-20.8-3.2-5.4-3.4-26.2-4.4-234.6l-1-228.4-69 69.2c-45.2 45.4-71.8 70.6-77 73-14.4 6.6-32.6 3.4-44.8-8.2-6.6-6.4-12.2-19.6-12.2-29 0-17.4 2.6-20.4 112.6-130.6 57.4-57.6 108-106.8 112.4-109.4 11.2-6.4 20.4-7.6 32-4 9.2 2.6 17.8 10.8 120.2 113.4 107.2 107.4 110.4 110.8 112.6 120.8 6 25.6-13.6 50.8-39.6 50.8-16 0-18.4-1.8-92.6-75.8l-71.6-71v227.4c0 246.8 0.4 235.2-10.6 247-10.2 11-31.4 15.8-45.4 10.2zM168 270.8c-9.2-4-15.4-10-20.6-19.8-3.8-7.2-4.4-12-5-48.4-1.4-66.6 3.4-91.8 22-119.8 15.6-23.4 40.4-41.6 68.6-50.2 11.4-3.4 26.2-3.6 278-3.6h266l15 4.6c21 6.6 39.2 17.8 54.2 33.8 15.4 16.4 24.4 32.8 29.8 53.8 3.4 13.4 4 22.2 4 68.8 0 52-0.2 53.6-4.6 62.2-13.2 25-47 29-66.2 7.8-3.8-4.2-7.8-11.2-9-15.4-1.2-4.4-2.2-27.8-2.2-54.6 0-41.2-0.6-48-3.8-55-4.6-10.2-15.8-20.2-25.6-22.8-11.2-3.2-505.6-3-514.8 0-10.2 3.6-19.4 11-24.4 20.4-4.2 8-4.4 11.4-5.4 61.4-1 56.8-1.6 59.2-12.4 69.4s-29.8 13.4-43.6 7.4z" />
<glyph unicode="&#xe97b;" glyph-name="uploads" d="M488.8 853c-7.4-3.6-30.6-25.8-93.2-88.4-79.6-80-83.4-84-86.4-94.4-4-13.6-4-20.8-0.2-33.4 6.2-21 25.6-35.4 47.8-35.6 21.8 0 24.6 1.8 65.8 42.4l37.4 37.2v-198.8c0-195.8 0.2-199.2 4.2-208 5-11 14.2-21 24.8-26.6 11.2-6 34.8-6 46 0 10.6 5.6 19.8 15.6 24.8 26.6 4 8.8 4.2 12.2 4.2 207.8v199l37.6-37.2c40.2-40 42.6-41.6 63.2-41.6 14.6 0 24.6 3.8 35.2 13.4 11.6 10.4 16.4 21.4 16.6 37.6 0.2 22.8-0.4 23.6-90.2 113.6-60.8 60.8-84 82.8-91.2 86.4-13.8 7-32.6 7-46.4 0zM188.4 139c-18.2-5.6-31-20.6-34.8-40.2-3.2-18 1.4-32.6 15-45.8 6.4-6.2 13.6-11 18.6-12.6 12-3.6 637.6-3.6 649.6 0 5 1.6 12.2 6.4 18.6 12.6 8 7.8 11 12.4 13.6 21.6 5.8 20.4-0.2 41.2-15.6 54.4-16 13.8 5.2 13-342.2 12.8-256.2 0-315.8-0.6-322.8-2.8z" />
<glyph unicode="&#xe97c;" glyph-name="user-8" d="M493 885c-117.804-14.797-194.804-78.797-231-192-16.488-69.728-7.154-135.728 28-198 70.702-103.476 167.702-141.81 291-115 92.016 29.35 151.684 90.35 179 183 15.748 66.42 7.748 129.754-24 190-55.266 90.152-136.266 134.152-243 132zM491 797c80.236 4.072 138.57-29.261 175-100 29.718-80.798 12.052-149.132-53-205-73.052-47.53-144.384-44.862-214 8-54.054 52.546-69.72 114.88-47 187 26.048 62.39 72.382 99.056 139 110zM463 329c106.66 8.452 207.326-11.882 302-61 50.544-27.878 88.878-67.544 115-119 14.102-34.018 18.768-69.352 14-106-15.848-29.946-38.848-36.946-69-21-6.766 6.538-11.766 14.206-15 23 3.564 45.832-11.436 84.166-45 115-58.87 47.070-126.204 73.736-202 80-80.988 8.794-158.988-2.538-234-34-31.514-13.534-59.18-32.534-83-57-26.086-29.596-37.42-64.262-34-104-6.786-20.58-21.118-31.248-43-32-19.899 1.452-33.565 11.452-41 30-7.248 73.146 16.419 134.146 71 183 53.734 44.864 115.066 74.864 184 90 26.778 5.464 53.446 9.798 80 13z" />
<glyph unicode="&#xe97d;" glyph-name="downloads" d="M796.443-64h-568.888c-60.778 0-117.922 23.67-160.904 66.653-42.98 42.976-66.651 100.122-66.651 160.904v56.891c0 31.421 25.469 56.891 56.889 56.891s56.889-25.471 56.889-56.891v-56.891c0-30.391 11.836-58.962 33.322-80.45 21.492-21.49 50.063-33.328 80.454-33.328h568.888c30.389 0 58.96 11.838 80.45 33.328 21.49 21.492 33.328 50.063 33.328 80.45v56.891c0 31.421 25.469 56.891 56.887 56.891s56.891-25.471 56.891-56.891v-56.891c0-60.778-23.67-117.92-66.653-160.904-42.982-42.982-100.126-66.653-160.904-66.653zM511.999 163.559c-7.87 0-15.362 1.598-22.178 4.485-6.359 2.687-12.335 6.59-17.563 11.695-0.002 0.002-0.002 0.004-0.004 0.004-0.038 0.036-0.076 0.074-0.113 0.111-0.010 0.008-0.022 0.022-0.032 0.032-0.032 0.028-0.060 0.058-0.089 0.087-0.020 0.020-0.038 0.036-0.058 0.058-0.020 0.020-0.046 0.046-0.064 0.062-0.040 0.040-0.083 0.083-0.123 0.123l-227.557 227.559c-22.216 22.216-22.216 58.237 0 80.454s58.239 22.218 80.454 0l130.44-130.44v545.321c-0.002 31.421 25.467 56.889 56.887 56.889s56.891-25.469 56.891-56.889v-545.319l130.438 130.438c22.214 22.216 58.241 22.216 80.454 0 22.216-22.216 22.216-58.239 0-80.454l-227.557-227.555c-0.040-0.040-0.083-0.083-0.123-0.123-0.022-0.020-0.046-0.046-0.064-0.062-0.020-0.022-0.038-0.038-0.058-0.058-0.028-0.032-0.060-0.060-0.087-0.087-0.010-0.010-0.024-0.024-0.034-0.032-0.036-0.038-0.074-0.076-0.111-0.111-0.002 0-0.002-0.002-0.004-0.004-0.626-0.61-1.26-1.202-1.908-1.779-4.763-4.249-10.069-7.562-15.679-9.926-0.020-0.008-0.036-0.016-0.056-0.024-0.022-0.008-0.040-0.020-0.062-0.026-6.781-2.856-14.225-4.43-22.041-4.43z" />
<glyph unicode="&#xe97e;" glyph-name="arrow-left2" d="M542.165 158.166l-225.835 225.835h494.336c23.552 0 42.667 19.115 42.667 42.667s-19.115 42.667-42.667 42.667h-494.336l225.835 225.835c16.683 16.683 16.683 43.691 0 60.331s-43.691 16.683-60.331 0l-298.667-298.667c-4.096-4.096-7.168-8.789-9.259-13.824-2.176-5.205-3.243-10.795-3.243-16.341 0-10.923 4.181-21.845 12.501-30.165l298.667-298.667c16.683-16.683 43.691-16.683 60.331 0s16.683 43.691 0 60.331z" />
<glyph unicode="&#xe97f;" glyph-name="arrow-right" d="M481.835 695.168l225.835-225.835h-494.336c-23.552 0-42.667-19.115-42.667-42.667s19.115-42.667 42.667-42.667h494.336l-225.835-225.835c-16.683-16.683-16.683-43.691 0-60.331s43.691-16.683 60.331 0l298.667 298.667c3.925 3.925 7.083 8.619 9.259 13.824 4.309 10.453 4.309 22.229 0 32.683-2.091 5.035-5.163 9.728-9.259 13.824l-298.667 298.667c-16.683 16.683-43.691 16.683-60.331 0s-16.683-43.691 0-60.331z" />
<glyph unicode="&#xe980;" glyph-name="plus3" d="M984 488h-432v432c0 22.092-17.908 40-40 40s-40-17.908-40-40v-432h-432c-22.092 0-40-17.908-40-40s17.908-40 40-40h432v-432c0-22.092 17.908-40 40-40s40 17.908 40 40v432h432c22.092 0 40 17.908 40 40s-17.908 40-40 40z" />
<glyph unicode="&#xe981;" glyph-name="plus-icon" d="M512 64c-25.6 0-42.667 17.067-42.667 42.667v682.667c0 25.6 17.067 42.667 42.667 42.667s42.667-17.067 42.667-42.667v-682.667c0-25.6-17.067-42.667-42.667-42.667zM853.333 405.333h-682.667c-25.6 0-42.667 17.067-42.667 42.667s17.067 42.667 42.667 42.667h682.667c25.6 0 42.667-17.067 42.667-42.667s-17.067-42.667-42.667-42.667z" />
<glyph unicode="&#xe982;" glyph-name="mail" d="M125.686 763.272l276.64-276.76c60.336-60.22 158.964-60.272 219.35 0l276.64 276.76c2.786 2.786 2.38 7.374-0.852 9.628-28.216 19.678-62.546 31.344-99.526 31.344h-571.872c-36.982 0-71.312-11.668-99.528-31.344-3.232-2.254-3.638-6.842-0.852-9.628zM51.758 629.938c0 29.080 7.21 56.556 19.91 80.706 1.986 3.778 7.020 4.542 10.038 1.524l273.138-273.138c86.494-86.62 227.77-86.67 314.316 0l273.138 273.138c3.018 3.018 8.052 2.254 10.038-1.524 12.698-24.15 19.91-51.628 19.91-80.706v-363.874c0-96.186-78.242-174.308-174.308-174.308h-571.872c-96.064 0-174.308 78.122-174.308 174.308z" />
<glyph unicode="&#xe983;" glyph-name="email" d="M990.208 731.552c-8.774 57.062-57.443 100.276-116.238 100.448h-723.922c-58.814-0.172-107.482-43.386-116.173-99.79l-0.083-0.658 478.208-309.44zM529.376 357.12c-4.907-3.215-10.918-5.129-17.376-5.129s-12.469 1.913-17.498 5.204l0.122-0.075-462.624 299.328v-474.4c0.073-65.167 52.881-117.975 118.041-118.048h723.911c65.167 0.073 117.975 52.881 118.048 118.041v474.439z" />
<glyph unicode="&#xe984;" glyph-name="message" d="M512 960c-282.51-0.001-512.002-229.493-512-512 0.001-0.661 0.030-1.314 0.088-1.959l-0.006 0.084c0.036-0.42 0.069-0.844 0.105-1.266-0.020-0.038-0.084-0.231-0.145-0.426l-0.042-0.156v-486.277c0.003-12.149 9.853-21.997 22.002-21.997 6.722 0 12.741 3.015 16.776 7.766l0.026 0.032c35.556 42.073 66.938 60.841 97.664 67.977s62.661 2.604 99.199-8.047c73.076-21.302 161.434-67.73 276.332-67.73 284.023 0 512.002 229.579 512 512 0.002 282.507-229.49 511.999-512 512zM294.223 524.445c41.958 0 76.441-34.488 76.441-76.445s-34.484-76.441-76.441-76.441c-41.958 0-76.445 34.484-76.445 76.441s34.488 76.445 76.445 76.445zM512 524.445c41.958 0 76.441-34.488 76.441-76.445s-34.484-76.441-76.441-76.441-76.445 34.484-76.445 76.441 34.488 76.445 76.445 76.445zM729.777 524.445c41.958 0 76.441-34.488 76.441-76.445s-34.484-76.441-76.441-76.441c-41.958 0-76.445 34.484-76.445 76.441s34.488 76.445 76.445 76.445z" />
<glyph unicode="&#xe985;" glyph-name="hashtag" d="M78.037 322.818c-34.191 0-61.994-27.805-61.994-61.994 0-34.191 27.803-61.996 61.994-61.996h90.801l-42.443-169.773c-4.025-16.074-1.543-32.738 6.979-46.936 8.52-14.211 22.051-24.23 38.096-28.242 4.933-1.24 10.020-1.876 15.090-1.876 28.469 0 53.201 19.313 60.101 46.98l49.963 199.848h306.178l-42.443-169.773c-4.025-16.074-1.543-32.738 6.979-46.936 8.52-14.211 22.051-24.23 38.096-28.242 4.933-1.24 10.020-1.877 15.090-1.877 28.469 0 53.201 19.313 60.101 46.98l49.963 199.848h215.377c34.191 0 61.994 27.805 61.994 61.996 0 34.189-27.803 61.994-61.994 61.994h-184.377l62.576 250.308h121.801c34.191 0 61.994 27.805 61.994 61.996s-27.803 61.994-61.994 61.994h-90.801l42.443 169.773c4.025 16.074 1.543 32.738-6.979 46.936-8.52 14.213-22.051 24.232-38.080 28.242-16.014 4.087-32.707 1.634-46.875-6.84-14.242-8.522-24.307-22.113-28.332-38.264l-49.963-199.848h-306.178l42.443 169.773c4.025 16.074 1.543 32.738-6.979 46.936-8.52 14.213-22.051 24.232-38.080 28.242-16.027 4.072-32.678 1.605-46.889-6.84-14.228-8.522-24.293-22.113-28.318-38.264l-49.963-199.848h-215.377c-34.191 0-61.994-27.803-61.994-61.994s27.803-61.996 61.994-61.996h184.377l-62.576-250.308zM390.199 573.127h306.178l-62.576-250.308h-306.178z" />
<glyph unicode="&#xe986;" glyph-name="arrow-up-right" d="M298.667 597.334h323.669l-353.835-353.835c-16.683-16.683-16.683-43.691 0-60.331s43.691-16.683 60.331 0l353.835 353.835v-323.669c0-23.552 19.115-42.667 42.667-42.667s42.667 19.115 42.667 42.667v426.667c0 5.803-1.152 11.307-3.243 16.341s-5.163 9.728-9.216 13.781c-0.043 0.043-0.043 0.043-0.085 0.085-3.925 3.925-8.619 7.083-13.781 9.216-5.035 2.091-10.539 3.243-16.341 3.243h-426.667c-23.552 0-42.667-19.115-42.667-42.667s19.115-42.667 42.667-42.667z" />
<glyph unicode="&#xe987;" glyph-name="search1" d="M684.416 262.144c-1.451-1.109-2.859-2.347-4.224-3.712s-2.56-2.731-3.712-4.224c-53.675-51.755-126.677-83.541-207.147-83.541-82.475 0-157.099 33.365-211.2 87.467s-87.467 128.725-87.467 211.2 33.365 157.099 87.467 211.2 128.725 87.467 211.2 87.467 157.099-33.365 211.2-87.467 87.467-128.725 87.467-211.2c0-80.469-31.787-153.472-83.584-207.189zM926.165 72.832l-156.8 156.8c52.523 65.707 83.968 149.035 83.968 239.701 0 106.027-43.008 202.069-112.469 271.531s-165.504 112.469-271.531 112.469-202.069-43.008-271.531-112.469-112.469-165.504-112.469-271.531 43.008-202.069 112.469-271.531 165.504-112.469 271.531-112.469c90.667 0 173.995 31.445 239.701 83.968l156.8-156.8c16.683-16.683 43.691-16.683 60.331 0s16.683 43.691 0 60.331z" />
<glyph unicode="&#xe988;" glyph-name="check1" d="M823.168 712.832l-439.168-439.168-183.168 183.168c-16.683 16.683-43.691 16.683-60.331 0s-16.683-43.691 0-60.331l213.333-213.333c16.683-16.683 43.691-16.683 60.331 0l469.333 469.333c16.683 16.683 16.683 43.691 0 60.331s-43.691 16.683-60.331 0z" />
<glyph unicode="&#xe989;" glyph-name="user2" d="M732.336 728.869c-0.017-121.675-98.658-220.306-220.336-220.306-121.688 0-220.336 98.648-220.336 220.336s98.648 220.336 220.336 220.336v0c121.69-0.008 220.336-98.659 220.336-220.35 0-0.005 0-0.010 0-0.015v0.001zM512 443.333c-0.158 0-0.345 0-0.531 0-130.966 0-248.834-56.078-330.902-145.532l-0.299-0.33c-74.357-81.013-56.144-209.891 37.478-267.571 83.724-52.19 185.375-83.134 294.254-83.134s210.53 30.944 296.64 84.518l-2.386-1.383c93.623 57.68 111.835 186.558 37.478 267.571-82.367 89.784-200.235 145.862-331.201 145.862-0.187 0-0.374 0-0.56 0h0.029z" />
<glyph unicode="&#xe98a;" glyph-name="image3" d="M939.465 242.334l-133.547 312.321c-24.32 57.173-60.587 89.6-101.973 91.733-40.96 2.133-80.64-26.453-110.933-81.067l-81.067-145.495c-17.067-30.72-41.387-49.067-67.84-51.2-26.881-2.56-53.761 11.52-75.521 39.253l-9.387 11.947c-30.293 37.973-67.84 56.32-106.24 52.48s-71.253-30.293-93.013-73.387l-73.813-147.2c-26.453-53.333-23.893-115.2 7.253-165.547s85.333-80.64 144.64-80.64h544.428c57.173 0 110.507 28.587 142.080 76.373 32.427 47.787 37.547 107.947 14.933 160.427zM297.38 602.407c79.647 0 144.212 64.566 144.212 144.213s-64.564 144.213-144.212 144.213c-79.647 0-144.213-64.567-144.213-144.213s64.567-144.213 144.213-144.213z" />
<glyph unicode="&#xe98b;" glyph-name="patreon" d="M0 938.667h180.011v-981.333h-180.011zM656.384 938.667c-203.392 0-368.811-165.248-368.811-368.341 0-202.667 165.419-367.36 368.811-367.36 202.837 0 367.616 164.907 367.616 367.36 0 203.051-164.821 368.341-367.616 368.341z" />
<glyph unicode="&#xe98c;" glyph-name="tumblr1" d="M351.232 522.752c-30.72 0-61.44 0-91.136 0 0 4.096 0 73.728 0 106.496 0 6.144 2.048 10.24 8.192 12.288 106.496 30.72 156.672 188.416 156.672 205.824 0 7.168 4.096 10.24 11.264 10.24h97.28c7.168 0 9.216-3.072 9.216-10.24v-196.608h193.536v-128c-64.512 0-126.976 0-190.464 0 0-3.072-2.048-276.48 0-289.792 3.072-20.48 15.36-34.816 32.768-45.056 30.72-18.432 63.488-19.456 97.28-13.312 27.648 5.12 84.992 33.792 88.064 35.84v-118.784c0-7.168-2.048-10.24-8.192-12.288-64.512-30.72-132.096-44.032-203.776-39.936-60.416 4.096-115.712 21.504-160.768 66.56-22.528 23.552-39.936 49.152-39.936 83.968s0 326.656 0 332.8z" />
</font>
</defs>
</svg>
